<?xml version="1.0" standalone="no"?>
<!DOCTYPE svg PUBLIC "-//W3C//DTD SVG 1.1//EN" "http://www.w3.org/Graphics/SVG/1.1/DTD/svg11.dtd" >
<svg xmlns="http://www.w3.org/2000/svg">
<metadata>Generated by IcoMoon</metadata>
<defs>
<font id="icon-foxic" horiz-adv-x="1024">
<font-face units-per-em="1024" ascent="960" descent="-64" />
<missing-glyph horiz-adv-x="1024" />
<glyph unicode="&#x20;" horiz-adv-x="512" d="" />
<glyph unicode="&#xe900;" glyph-name="gift" d="M819.2 816.64c0 67.768-55.112 122.88-122.88 122.88h-81.92c-42.721 0-80.364-21.934-102.4-55.091-22.036 33.178-59.679 55.091-102.4 55.091h-81.92c-67.768 0-122.88-55.112-122.88-122.88 0-31.498 12.001-60.15 31.539-81.92h-215.859v-245.76h40.96v-532.48h901.12v532.48h40.96v245.76h-215.859c19.538 21.77 31.539 50.422 31.539 81.92zM614.4 898.56h81.92c45.179 0 81.92-36.741 81.92-81.92s-36.741-81.92-81.92-81.92h-163.84v81.92c0 45.179 36.741 81.92 81.92 81.92zM245.76 816.64c0 45.179 36.741 81.92 81.92 81.92h81.92c45.179 0 81.92-36.741 81.92-81.92v-81.92h-163.84c-45.179 0-81.92 36.741-81.92 81.92zM61.44 693.76h348.16v-163.84h-348.16v163.84zM409.6-2.56h-307.2v491.52h307.2v-491.52zM573.44-2.56h-122.88v696.32h122.88v-696.32zM921.6-2.56h-307.2v491.52h307.2v-491.52zM962.56 529.92h-348.16v163.84h348.16v-163.84z" />
<glyph unicode="&#xe901;" glyph-name="close-bold" d="M890.4 741.6l-84.8 84.8-293.6-293.6-293.6 293.6-84.8-84.8 293.6-293.6-293.6-293.6 84.8-84.8 293.6 293.6 293.6-293.6 84.8 84.8-293.6 293.6z" />
<glyph unicode="&#xe902;" glyph-name="close" d="M558.688 447.552l263.648 262.208c12.64 12.512 12.64 32.768 0 45.248-12.608 12.512-33.088 12.512-45.696 0l-263.424-261.984-265.856 265.888c-12.608 12.64-33.088 12.64-45.696 0-12.608-12.672-12.608-33.184 0-45.824l265.664-265.696-266.624-265.152c-12.608-12.512-12.608-32.768 0-45.248 12.608-12.512 33.088-12.512 45.696 0l266.4 264.928 264.8-264.832c12.608-12.64 33.088-12.64 45.696 0 12.608 12.672 12.608 33.184 0 45.824l-264.608 264.64z" />
<glyph unicode="&#xe903;" glyph-name="user" d="M174.545 46.712c-1.164 0-1.164 0-2.327 0-11.636 1.164-19.782 10.473-18.618 22.109 11.636 173.382 174.545 308.364 370.036 308.364s358.4-134.982 370.036-307.2c1.164-11.636-8.145-20.945-18.618-22.109-11.636-1.164-20.945 8.145-22.109 18.618-10.473 151.273-155.927 268.8-329.309 268.8-174.545 0-320-118.691-329.309-269.964-1.164-10.473-9.309-18.618-19.782-18.618zM524.8 414.421c-114.036 0-207.127 91.927-207.127 207.127s91.927 207.127 207.127 207.127 207.127-91.927 207.127-207.127-93.091-207.127-207.127-207.127zM524.8 785.621c-90.764 0-165.236-74.473-165.236-165.236s74.473-165.236 165.236-165.236 165.236 74.473 165.236 165.236-75.636 165.236-165.236 165.236z" />
<glyph unicode="&#xe904;" glyph-name="basket" d="M971.636 683.221h-116.364l-164.073 168.727c-6.982 6.982-18.618 6.982-25.6 0s-6.982-17.455 0-24.436l139.636-143.127h-556.218l139.636 143.127c6.982 6.982 6.982 18.618 0 25.6s-18.618 6.982-25.6 0l-164.073-168.727h-116.364c-10.473 0-17.455-8.145-17.455-18.618v-148.945c0-27.927 19.782-51.2 45.382-55.855l60.509-315.345c8.145-45.382 48.873-79.127 95.418-79.127h517.818c46.545 0 86.109 33.745 95.418 79.127l62.836 315.345c25.6 5.818 45.382 29.091 45.382 57.018v148.945c1.164 6.982-6.982 16.291-16.291 16.291zM845.964 150.275c-5.818-29.091-31.418-50.036-60.509-50.036h-517.818c-29.091 0-54.691 22.109-60.509 50.036l-59.345 308.364h758.691l-60.509-308.364zM953.018 515.657c0-11.636-9.309-20.945-22.109-20.945h-807.564c-11.636 0-22.109 9.309-22.109 20.945v131.491h103.564c1.164 0 1.164 0 2.327 0s1.164 0 2.327 0h636.509c1.164 0 1.164 0 2.327 0s1.164 0 2.327 0h103.564v-131.491z" />
<glyph unicode="&#xe905;" glyph-name="heart" d="M288.582 797.981c-60.509 0-121.018-23.273-166.4-68.655-91.927-90.764-91.927-238.545 0-329.309l373.527-368.873c8.145-8.145 20.945-8.145 29.091 0 124.509 123.345 249.018 245.527 374.691 368.873 91.927 90.764 91.927 238.545 0 329.309s-240.873 90.764-333.964 0l-54.691-53.527-54.691 54.691c-46.545 45.382-107.055 67.491-167.564 67.491v0zM288.582 758.417c50.036 0 100.073-18.618 138.473-57.018l69.818-68.655c8.145-8.145 20.945-8.145 29.091 0l68.655 67.491c76.8 75.636 200.145 75.636 276.945 0s76.8-196.655 0-271.127c-119.855-118.691-239.709-236.218-359.564-354.909l-359.564 354.909c-76.8 75.636-76.8 195.491 0 271.127 37.236 38.4 87.273 58.182 136.145 58.182z" />
<glyph unicode="&#xe906;" glyph-name="search-1" horiz-adv-x="1022" d="M179 760c11.039 0 20 8.961 20 20 0 11-8.945 20-20 20-11.039 0-20-8.961-20-20 0-11.094 9.039-20 20-20zM279 420h200c33.086 0 60 26.914 60 60v240c0 11.047-8.961 20-20 20h-280c-11.047 0-20-8.953-20-20v-240c0-33.086 26.914-60 60-60zM259 700h240v-220c0-11.023-8.977-20-20-20h-200c-11.031 0-20 8.977-20 20zM376.695 540h4.602c42.844 0 77.703 34.859 77.703 77.703v22.297c0 11.047-8.953 20-20 20s-20-8.953-20-20v-22.297c0-20.789-16.914-37.703-37.703-37.703h-4.602c-20.781 0-37.695 16.914-37.695 37.703v22.297c0 11.047-8.953 20-20 20s-20-8.953-20-20v-22.297c0-42.844 34.852-77.703 77.695-77.703zM759.797 581.484c0 209.070-169.711 378.516-380 378.516-209.969 0-380.797-169.805-380.797-378.516 0-209.539 170.828-380 380.797-380 79.844 0 158.266 25.594 222.789 72.367l61.703-61.703c-8.594-8.508-14.125-13.977-14.133-13.984-3.773-3.734-5.906-8.813-5.938-14.125-0.031-5.305 2.055-10.406 5.797-14.18l202.844-204.586c43.398-43.367 115.625-38.078 152.203 12.742 28.148 39.055 22.203 95.688-13.766 131.648l-199.734 201.477c-4.398 4.438-10.625 6.563-16.797 5.75-5.203-0.68-9.883-3.367-13.086-7.414-0.883-0.969-3.688-3.906-12.359-12.656l-61.891 61.883c46.773 64.516 72.367 142.938 72.367 222.781zM692.696 240.304l-58.844 58.852c9.906 8.922 19.352 18.367 28.273 28.273l58.938-58.922c-8.352-8.328-17.891-17.805-28.367-28.203zM39 581.484c0 186.656 152.883 338.516 340.797 338.516 187.477 0 340-151.859 340-338.516 0-186.016-151.094-340-340-340-187.914 0-340.797 152.523-340.797 340zM777.547 268.461l185.406-187.023c22.313-22.313 26.461-56.719 9.656-80.055-22.82-31.688-66.258-33.016-91.406-7.883l-188.688 190.305c23.984 23.742 61.406 60.852 85.031 84.656zM525.641 319.375c0.32 0.18 0.289 0.156 0 0zM679.625 571.351c5.453 173.75-134.977 312.305-303.969 310.102-50.797-0.961-97.211-13.055-140.648-37.195-6.469-3.313-10.898-10.047-10.898-17.82 0-15.297 16.508-24.859 29.758-17.461 36.156 20.18 74.883 31.563 122.492 32.484 146.43 1.906 268-118.328 263.289-268.813-4.781-142.75-122.461-251.164-259.852-251.164-139.398 0-264 112.164-259.703 272.484 0.664 13.961 2.375 27.875 5.992 44.469 5.648 24.859 14.008 46.156 24.891 66.414 5.227 9.727 1.578 21.859-8.148 27.086s-21.859 1.586-27.086-8.148c-7.727-14.375-13.875-28.539-17.828-39.617h-0.008c-4.023-11.039-6.992-20.516-10.859-37.031-42.336-185.086 99.664-365.656 292.75-365.656 49.25 0 98.289 11.836 145.844 37.891 91.383 50.266 150.477 146.859 153.984 251.977z" />
<glyph unicode="&#xe907;" glyph-name="angle-left" d="M711.235 59.042c13.713-13.935 13.713-36.285 0-50.131s-35.885-13.891-49.597 0l-400.918 404.881c-13.713 13.802-13.713 36.196 0 50.131l400.918 404.881c13.713 13.802 35.885 13.802 49.597 0 13.713-13.891 13.713-36.285 0-50.131l-365.613-379.859 365.613-379.815z" />
<glyph unicode="&#xe908;" glyph-name="menu1" d="M128 704h768v-86.016h-768v86.016zM128 406.016v84.013h768v-84.013h-768zM128 192v86.016h768v-86.016h-768z" />
<glyph unicode="&#xe909;" glyph-name="menu" d="M128 746.652h768q17.675 0 30.186-12.511t12.511-30.186-12.511-30.186-30.186-12.511h-768q-17.675 0-30.186 12.511t-12.511 30.186 12.511 30.186 30.186 12.511zM128 234.652h768q17.675 0 30.186-12.511t12.511-30.186-12.511-30.186-30.186-12.511h-768q-17.675 0-30.186 12.511t-12.511 30.186 12.511 30.186 30.186 12.511zM128 490.652h768q17.675 0 30.186-12.511t12.511-30.186-12.511-30.186-30.186-12.511h-768q-17.675 0-30.186 12.511t-12.511 30.186 12.511 30.186 30.186 12.511z" />
<glyph unicode="&#xe90a;" glyph-name="watch" d="M139.136 773.856c-68.904-85.728-106.464-192.424-106.464-302.808 0-266.856 217.080-483.936 483.936-483.936s483.936 217.080 483.936 483.936c0 110.384-37.56 217.080-106.464 302.808v0c-14.752-3.456 0.464-1.616 0 0-11.984 36.184 0 0 0 0l-101.168 94.256c-55.304 38.488-118.216 65.216-184.128 77.888-22.584 6.224-53.696 9.912-90.8 9.912-38.488 0.232-67.288-5.072-93.56-9.912-26.728-4.84-59.92-14.056-96.096-29.264-36.184-15.44-65.68-32.952-88.032-48.624 0 0-70.288-54.848-90.104-80.192zM562.696 952.912c-30.648 2.768-61.528 2.768-92.176 0zM203.432 839.992c-11.752-9.912-23.048-20.512-33.648-31.568zM516.608 33.192c-241.512 0-437.848 196.344-437.848 437.848 0 106.464 38.712 209.016 108.768 288.984 19.36 21.896 41.016 42.168 64.064 59.688 58.072 44.248 126.976 73.512 199.104 84.344 21.664 3.224 43.784 4.84 65.68 4.84s44.248-1.616 65.68-4.84c72.128-10.832 141.032-40.096 199.104-84.344 23.272-17.744 44.704-37.792 64.064-59.688 70.52-79.968 109.232-182.512 109.232-288.984 0-241.512-196.344-437.848-437.848-437.848zM516.608 401.912c38.024 0 69.136 31.112 69.136 69.136 0 29.96-19.36 55.768-46.088 65.216v126.056c0 12.672-10.368 23.048-23.048 23.048s-23.048-10.368-23.048-23.048v-126.056c-26.728-9.448-46.088-35.256-46.088-65.216 0-38.024 31.112-69.136 69.136-69.136zM516.608 494.088c12.672 0 23.048-10.368 23.048-23.048s-10.368-23.048-23.048-23.048-23.048 10.368-23.048 23.048 10.368 23.048 23.048 23.048zM762.032 714.168c-0.464 0.464-0.688 0.92-1.152 1.152-0.464 0.464-0.92 0.92-1.384 1.152-38.488 38.256-85.728 66.832-137.112 83.424-2.768 0.92-5.528 1.84-8.296 2.536-12.216 3.688-25.12-3.456-28.576-15.672s3.456-25.12 15.672-28.576c40.328-11.984 77.888-32.496 110.152-59.92l-15.44-15.44c-8.984-8.984-8.984-23.504 0-32.496 4.608-4.608 10.368-6.68 16.36-6.68s11.752 2.304 16.36 6.68l15.672 15.672c41.712-48.392 66.368-108.080 71.208-171.68h-22.352c-12.672 0-23.048-10.368-23.048-23.048s10.368-23.048 23.048-23.048h22.12c-4.84-63.6-29.496-123.288-71.208-171.68l-15.672 15.672c-8.984 8.984-23.504 8.984-32.496 0s-8.984-23.504 0-32.496l15.672-15.672c-48.392-41.712-108.080-66.368-171.68-71.208v21.664c0 12.672-10.368 23.048-23.048 23.048s-23.048-10.368-23.048-23.048v-22.12c-63.6 4.84-123.288 29.496-171.68 71.208l15.672 15.672c8.984 8.984 8.984 23.504 0 32.496s-23.504 8.984-32.496 0l-15.672-15.672c-41.712 48.392-66.368 108.080-71.208 171.68h22.12c12.672 0 23.048 10.368 23.048 23.048s-10.368 23.048-23.048 23.048h-22.12c4.84 63.6 29.496 123.288 71.208 171.68l15.672-15.672c4.608-4.608 10.368-6.68 16.36-6.68s11.752 2.304 16.36 6.68c8.984 8.984 8.984 23.504 0 32.496l-15.44 15.44c32.032 27.424 69.824 48.16 110.152 59.92 12.216 3.688 19.128 16.36 15.672 28.576-2.992 10.136-12.448 16.824-22.584 16.592-2.072 0-3.92-0.464-5.992-0.92-54.384-16.128-104.624-45.856-145.184-85.96-0.464-0.464-0.92-0.92-1.384-1.152-0.464-0.464-0.688-0.92-1.152-1.152-65.68-64.752-101.168-150.944-101.168-242.664s35.488-177.904 100.248-243.12c0.464-0.464 0.688-0.92 1.152-1.152 0.464-0.464 0.92-0.688 1.152-1.152 65.216-64.752 151.4-100.248 243.12-100.248s177.904 35.488 243.12 100.248c0.464 0.464 0.92 0.688 1.152 1.152 0.464 0.464 0.688 0.92 1.152 1.152 64.528 65.216 100.248 151.4 100.248 243.12s-35.488 177.904-100.248 243.12zM855.6 818.096c13.6-14.288 40.096-46.32 40.096-46.32l-78.584 54.152-50.696 56.232c0 0 44.248-17.28 89.184-64.064zM464.76 520.592c-26.96-26.96-26.96-70.744 0-97.712 21.2-21.2 53-25.808 78.584-13.6l94.712-92.872c8.984-8.984 23.504-8.984 32.496 0s8.984 23.504 0 32.496l-94.712 92.872c12.216 25.808 7.832 57.384-13.6 78.584-26.728 27.192-70.52 27.192-97.48 0.232zM529.976 455.376c-8.984-8.984-23.504-8.984-32.496 0s-8.984 23.504 0 32.496c8.984 8.984 23.504 8.984 32.496 0 8.984-8.76 8.984-23.504 0-32.496zM274.872 717.856c-0.464-0.464-0.92-0.688-1.152-1.152-0.464-0.464-0.92-0.92-1.152-1.384-38.256-38.488-67.288-85.496-83.88-136.656-0.92-2.768-1.84-5.528-2.536-8.296-3.688-12.216 3.224-25.12 15.44-28.576 12.216-3.688 25.12 3.224 28.576 15.44 11.984 40.328 32.72 77.888 60.376 109.92l15.44-15.672c8.984-8.984 23.504-8.984 32.496-0.232 4.608 4.376 6.68 10.368 6.912 16.36 0 5.992-2.304 11.752-6.68 16.36l-15.44 15.672c48.624 41.48 108.544 66.136 172.144 70.52v-22.12c0-12.672 10.136-23.048 23.048-23.048 12.672 0 23.048 10.136 23.048 23.048v22.12c63.6-5.072 123.056-30.192 171.456-71.896l-15.672-15.44c-8.984-8.984-8.984-23.504-0.232-32.496 8.984-8.984 23.504-8.984 32.496-0.232l15.672 15.44c41.48-48.624 66.136-108.544 70.52-172.144h-22.12c-12.672 0-23.048-10.136-23.048-23.048 0-12.672 10.136-23.048 23.048-23.048h22.12c-5.072-63.6-30.192-123.056-71.896-171.456l-15.44 15.672c-8.984 8.984-23.504 8.984-32.496 0.232-8.984-8.984-8.984-23.504-0.232-32.496l15.44-15.672c-48.624-41.48-108.544-66.136-172.144-70.52v22.12c0 12.672-10.136 23.048-23.048 23.048-12.672 0-23.048-10.136-23.048-23.048v-22.12c-63.6 5.072-123.056 30.192-171.456 71.896l15.672 15.44c4.608 4.376 6.68 10.368 6.912 16.36 0 5.992-2.304 11.752-6.68 16.36-8.984 8.984-23.504 8.984-32.496 0.232l-15.672-15.44c-27.424 32.264-47.936 69.824-59.688 110.384-3.456 12.216-16.36 19.128-28.576 15.672-10.136-2.992-16.824-12.448-16.592-22.584 0-2.072 0.232-3.92 0.92-5.992 15.904-54.616 45.4-104.856 85.264-145.64 0.464-0.464 0.92-0.92 1.152-1.384 0.464-0.464 0.92-0.688 1.152-1.152 64.984-64.984 151.176-100.704 242.664-101.168 91.72-0.464 178.136 34.8 243.584 99.32 0.464 0.464 0.92 0.688 1.152 1.152 0.464 0.464 0.688 0.92 1.152 1.152 64.984 64.984 100.704 151.176 101.168 242.664 0.464 91.72-34.8 178.136-99.096 243.584-0.464 0.464-0.688 0.92-1.152 1.152-0.464 0.464-0.92 0.688-1.152 1.152-64.984 64.984-151.176 100.704-242.664 101.168-91.72 0-178.136-35.256-243.584-99.552z" />
<glyph unicode="&#xe90b;" glyph-name="call" d="M808.96 451.428c0-13.668 10.24-27.292 27.292-27.292s27.292 10.24 27.292 27.292c0 187.748-153.6 341.348-341.348 341.348-13.668 0-27.292-10.24-27.292-27.292s10.24-27.292 27.292-27.292c157.028 3.428 286.72-126.308 286.72-286.72zM494.948 628.892c0-13.668 10.24-27.292 27.292-27.292 81.92 0 146.788-64.868 146.788-146.788 0-13.668 10.24-27.292 27.292-27.292s27.292 10.24 27.292 27.292c0 109.212-88.732 197.988-197.988 197.988-20.48 0-30.72-10.24-30.72-23.908zM518.812 953.188c-13.668 0-27.292-10.24-27.292-27.292s10.24-27.292 27.292-27.292c245.76 0 447.132-201.372 447.132-447.132 0-13.668 10.24-27.292 27.292-27.292s27.292 10.24 27.292 27.292c-3.428 276.48-225.28 501.76-501.76 501.76zM662.172 355.84c-3.428 3.428-10.24 6.812-17.052 6.812v0c-6.812 0-13.668-3.428-17.052-6.812l-54.628-54.628c-20.48-20.48-54.628-20.48-75.108 0l-126.308 116.068c-20.48 20.48-20.48 54.628 0 75.108l61.44 61.44c10.24 10.24 10.24 27.292 0 37.532l-252.572 249.188c-3.428 3.428-10.24 6.812-17.052 6.812s-13.668-3.428-17.052-6.812c-3.428-3.428-81.92-81.92-98.972-102.4-47.772-47.772-54.628-146.788-20.48-232.092 75.108-187.748 324.252-416.412 532.48-542.72 17.052-10.24 58.012-20.48 98.972-20.48 0 0 0 0 0 0 37.532 0 92.16 6.812 139.932 47.772 44.388 37.532 95.588 92.16 98.972 95.588 10.24 10.24 10.24 27.292 0 34.148l-235.52 235.52zM764.572 31.588c-34.148-30.72-75.108-34.148-105.828-34.148 0 0 0 0 0 0-37.532 0-68.252 10.24-71.68 13.668-235.52 139.932-450.56 354.972-512 515.428-27.292 71.68-17.052 150.172 6.812 177.508 13.668 13.668 54.628 54.628 81.92 81.92l211.612-211.612-44.388-44.388c-40.96-40.96-40.96-105.828 0-146.788l126.308-116.068c37.532-37.532 105.828-37.532 146.788 0l37.532 37.532 197.988-197.988c-17.052-23.908-47.772-54.628-75.108-75.108z" />
<glyph unicode="&#xe90c;" glyph-name="facebook" d="M748.366 953.144v-150.84h-89.711c-70.3 0-83.434-33.703-83.434-82.276v-108.010h167.446l-22.305-169.138h-145.141v-433.731h-174.837v433.731h-145.72v169.138h145.72v124.572c0 144.562 88.554 223.41 217.711 223.41 61.707 0 114.866-4.586 130.271-6.856z" />
<glyph unicode="&#xe90d;" glyph-name="fancy" d="M767.822 227.217h-175.238v-206.759c0-44.522-36.107-80.584-80.584-80.584s-80.584 36.107-80.584 80.584v206.759h-175.238c-30.987 0-56.053 25.11-56.053 56.053v364.455c0 1.202 0.089 2.36 0.178 3.517 3.74 169.005 141.846 304.885 311.741 304.885s308.001-135.88 311.741-304.885c0.089-1.158 0.178-2.315 0.178-3.517v-364.455c0-30.987-25.11-56.053-56.053-56.053z" />
<glyph unicode="&#xe90e;" glyph-name="google" d="M101.821 673.859c0-76.488 25.555-131.695 75.865-164.107 41.272-26.624 89.088-30.631 113.976-30.631 6.055 0 10.908 0.312 14.291 0.49 0 0-7.88-51.423 30.23-102.177h-1.736c-65.981 0-281.244-13.757-281.244-190.82 0-180.001 197.677-189.173 237.345-189.173 3.117 0 4.986 0.089 4.986 0.089 0.401 0 3.206-0.089 8.103-0.089 25.466 0 91.225 3.161 152.309 32.902 79.249 38.422 119.452 105.427 119.452 198.923 0 90.335-61.217 144.072-105.917 183.385-27.292 23.997-50.888 44.7-50.888 64.824 0 20.48 17.274 35.885 39.001 55.385 35.261 31.477 68.563 76.399 68.563 161.302 0 74.618-9.661 124.705-69.32 156.538 6.189 3.161 28.227 5.476 39.046 7.034 32.323 4.408 79.56 9.439 79.56 35.795v5.075h-235.475c-2.36-0.089-238.147-8.815-238.147-224.701zM481.948 212.391c4.497-71.992-57.077-125.062-149.593-131.784-93.941-6.901-171.275 35.395-175.772 107.297-2.182 34.593 13 68.385 42.741 95.366 30.141 27.292 71.591 44.166 116.647 47.505 5.343 0.312 10.596 0.623 15.894 0.623 86.995-0.045 145.853-51.155 150.127-119.051zM420.463 723.144c23.107-81.297-11.798-166.2-67.361-181.916-6.411-1.781-12.956-2.671-19.679-2.671-50.888 0-101.331 51.512-120.075 122.524-10.463 39.713-9.572 74.663 2.404 108.143 11.709 33.035 32.902 55.207 59.526 62.731 6.411 1.781 13 2.716 19.723 2.716 61.44 0 100.975-25.511 125.462-111.527zM819.2 550.4v153.6h-102.4v-153.6h-153.6v-102.4h153.6v-153.6h102.4v153.6h153.6v102.4h-153.6z" />
<glyph unicode="&#xe90f;" glyph-name="instagram" d="M870.4 908.8h-716.8c-56.32 0-102.4-46.080-102.4-102.4v-716.8c0-56.365 46.080-102.4 102.4-102.4h716.8c56.32 0 102.4 46.035 102.4 102.4v716.8c0 56.32-46.080 102.4-102.4 102.4zM511.199 165.242c156.627 0 283.559 127.021 283.559 283.603 0 17.319-2.182 34.015-5.254 50.399h80.941v-369.441c0-19.545-15.894-35.306-35.484-35.306h-645.832c-19.59 0-35.484 15.761-35.484 35.306v369.441h79.293c-3.117-16.384-5.343-33.080-5.343-50.399 0-156.627 127.021-283.603 283.603-283.603zM333.958 448.801c0 97.903 79.382 177.197 177.241 177.197s177.241-79.293 177.241-177.197-79.427-177.241-177.241-177.241c-97.948 0-177.241 79.382-177.241 177.241zM834.916 652.8h-82.677c-19.545 0-35.439 15.983-35.439 35.439v82.81c0 19.545 15.894 35.395 35.395 35.395h82.677c19.679 0 35.528-15.805 35.528-35.395v-82.721c0-19.501-15.85-35.484-35.484-35.484z" />
<glyph unicode="&#xe910;" glyph-name="linkedin" d="M256 806.4c0-54.361-36.374-101.153-102.445-101.153-62.197 0-102.355 44.121-102.355 98.527 0 55.786 38.912 105.071 102.4 105.071s101.153-46.57 102.4-102.4zM51.2-12.8v665.6h204.8v-665.6h-204.8zM358.4 425.249c0 79.115-2.627 145.185-5.209 202.307h184.008l9.127-88.198h3.873c25.912 41.539 89.4 102.4 195.673 102.4 129.647 0 226.927-86.773 226.927-273.497v-381.017h-204.8v351.277c0 81.608-31.076 143.85-102.4 143.85-54.361 0-81.608-44.032-95.9-80.317-5.209-13-6.5-31.121-6.5-49.286v-365.523h-204.8v438.049z" />
<glyph unicode="&#xe911;" glyph-name="pinterest" d="M441.21 282.78c-26.936-141-59.748-276.168-157.073-346.78-30.008 213.081 44.077 373.092 78.536 542.987-58.724 98.838 7.079 297.583 130.805 248.565 152.309-60.193-131.873-367.215 58.858-405.593 199.235-39.981 280.531 345.622 156.984 470.995-178.443 181.159-519.48 4.23-477.496-255.065 10.195-63.399 75.687-82.588 26.179-170.073-114.243 25.288-148.346 115.4-143.939 235.52 7.079 196.608 176.573 334.18 346.691 353.28 215.085 24.131 416.991-78.982 444.861-281.288 31.388-228.397-97.057-475.804-327.101-457.995-62.375 4.853-88.465 35.795-137.305 65.491z" />
<glyph unicode="&#xe912;" glyph-name="skype" d="M981.259 373.871c3.829 24.175 5.832 48.929 5.832 74.173 0 262.411-212.68 475.091-475.091 475.091-25.199 0-49.998-2.093-74.129-5.832-43.765 27.069-95.41 42.741-150.751 42.741-158.542 0-287.076-128.534-287.076-287.076 0-55.341 15.672-106.941 42.741-150.795-3.74-24.22-5.788-48.885-5.788-74.129 0-262.411 212.68-475.047 475.047-475.047 25.199 0 49.998 1.959 74.173 5.743 43.809-27.025 95.41-42.741 150.751-42.741 158.586 0 287.121 128.534 287.121 287.121 0 55.341-15.672 106.941-42.741 150.751zM737.547 231.936c-20.079-28.939-49.642-51.556-88.198-67.807-38.645-16.295-84.324-24.398-137.127-24.398-63.221 0-115.578 11.086-156.939 33.391-29.295 15.983-53.114 37.443-71.457 64.245s-27.648 53.025-27.648 78.581c0 15.093 5.743 28.227 16.963 38.912 11.309 10.774 25.912 16.161 43.097 16.161 14.113 0 26.179-4.23 36.063-12.644 9.795-8.415 17.987-20.614 24.71-36.775 8.058-18.699 16.785-34.326 26.090-46.792 9.261-12.333 22.261-22.573 39.090-30.631 16.651-8.058 38.823-12.11 66.56-12.11 37.977 0 68.653 8.192 92.115 24.398 23.597 16.339 34.95 36.241 34.95 60.282 0 19.189-6.099 34.371-18.655 46.258-12.644 12.021-28.984 21.192-49.241 27.559-20.346 6.456-47.683 13.312-81.875 20.525-45.946 10.017-84.413 21.727-115.534 35.128-31.165 13.446-56.008 31.878-74.396 55.118-18.432 23.463-27.648 52.625-27.648 87.218 0 32.946 9.706 62.419 29.117 88.064 19.411 25.734 47.505 45.412 84.146 59.125 36.508 13.713 79.516 20.569 128.757 20.569 39.357 0 73.461-4.541 102.266-13.624 28.761-9.127 52.714-21.192 71.903-36.285 19.055-15.093 33.035-30.987 41.939-47.683 8.86-16.74 13.312-33.124 13.312-49.063 0-14.826-5.743-28.316-16.963-40.114s-25.555-17.853-42.296-17.764c-15.093 0-26.936 3.473-35.172 10.863-8.014 7.123-16.384 18.477-25.466 34.326-11.487 22.083-25.244 39.268-41.227 51.601-15.583 12.065-41.272 18.343-77.023 18.298-33.080 0-59.57-6.767-79.56-19.99-20.124-13.446-29.696-29.028-29.741-47.282 0.045-11.442 3.339-21.103 9.928-29.34 6.723-8.326 16.072-15.538 28.093-21.638 12.021-6.189 24.264-10.952 36.552-14.381 12.422-3.517 33.080-8.637 61.752-15.36 35.974-7.747 68.608-16.429 97.948-25.867 29.251-9.483 54.227-20.925 74.886-34.549 20.792-13.579 37.042-30.943 48.662-51.868 11.709-20.97 17.497-46.57 17.497-76.711 0.045-36.285-10.062-68.92-30.23-97.814z" />
<glyph unicode="&#xe913;" glyph-name="snapchat" d="M529.096 886.851c102.845 1.158 188.015-56.587 230.845-149.148 13.134-28.004 15.449-71.413 15.449-102.266 0-36.552-2.849-72.57-5.165-109.123 4.586-2.271 10.863-4.007 15.983-4.007 20.569 0 37.71 15.449 58.279 15.449 19.411 0 47.416-13.713 47.416-36.552 0-54.851-114.866-44.566-114.866-92.561 0-8.593 3.428-16.562 6.856-24.576 27.425-60.015 79.427-117.715 141.134-143.449 14.87-6.278 29.696-9.706 45.724-13.134 10.285-2.271 15.983-9.706 15.983-19.99 0-38.867-98.838-54.851-125.151-58.858-11.442-17.72-2.849-59.437-33.124-59.437-23.418 0-46.837 7.435-71.992 7.435-12.021 0-23.997-0.579-35.439-2.849-67.985-11.442-90.869-84.591-202.307-84.591-107.431 0-133.165 73.149-199.413 84.591-12.021 2.271-23.997 2.849-36.018 2.849-25.734 0-50.265-8.593-70.879-8.593-32.011 0-22.305 42.296-34.282 60.55-26.268 4.007-125.151 19.99-125.151 58.858 0 10.285 5.699 17.72 15.983 19.99 15.983 3.428 30.854 6.856 45.724 13.134 61.128 25.155 114.287 83.434 141.134 143.449 3.428 8.014 6.856 15.983 6.856 24.576 0 47.994-115.445 38.867-115.445 91.982 0 22.305 26.268 36.552 46.303 36.552 17.72 0 35.439-14.87 57.7-14.87 6.278 0 12.555 1.158 18.298 4.007-2.271 36.018-5.165 71.992-5.165 108.589 0 30.854 2.271 74.841 15.449 102.845 50.265 108.589 135.435 147.99 249.144 149.148z" />
<glyph unicode="&#xe914;" glyph-name="tumblr" d="M739.773 200.593l45.724-135.435c-17.141-25.734-94.876-54.851-164.552-56.008-207.427-3.428-285.696 147.411-285.696 253.729v310.851h-95.989v122.835c143.983 52.001 178.844 182.272 186.858 256.579 0.579 4.586 4.586 6.856 6.856 6.856h139.442v-242.287h190.286v-143.983h-190.865v-295.981c0-39.981 14.87-95.41 91.448-93.718 25.155 0.579 58.858 8.014 76.577 16.562z" />
<glyph unicode="&#xe915;" glyph-name="twitter" d="M1024 765.084c-40.292-17.319-80.584-28.138-120.832-32.501 45.501 27.292 76.266 65.848 92.294 115.667-41.583-24.665-86.016-41.583-133.209-50.666-41.583 44.166-92.694 66.293-153.333 66.293-58.056 0-107.52-20.48-148.48-61.395s-61.395-90.424-61.395-148.48c0-15.583 1.736-31.61 5.209-48.083-85.749 4.319-166.244 25.867-241.397 64.646s-138.952 90.424-191.354 154.98c-19.055-32.501-28.583-67.807-28.583-105.917 0-35.974 8.459-69.32 25.333-100.085s39.624-55.652 68.207-74.707c-33.792 1.291-65.402 10.195-94.876 26.624v-2.582c0-50.666 15.939-95.187 47.772-133.521s72.036-62.464 120.52-72.437c-18.209-4.764-36.597-7.123-55.251-7.123-12.11 0-25.333 1.069-39.624 3.25 13.446-42.029 38.111-76.533 74.084-103.647s76.666-41.049 122.168-41.895c-76.221-59.748-163.083-89.667-260.541-89.667-18.61 0-35.528 0.846-50.666 2.582 97.458-62.82 204.889-94.208 322.293-94.208 74.485 0 144.473 11.798 209.831 35.395s121.277 55.207 167.624 94.876c46.347 39.624 86.328 85.215 119.853 136.771s58.591 105.383 75.064 161.436c16.473 56.097 24.71 112.284 24.71 168.604 0 12.11-0.223 21.237-0.668 27.292 41.183 29.874 76.266 66.070 105.294 108.499z" />
<glyph unicode="&#xe916;" glyph-name="vimeo" d="M1019.637 725.237c7.658 42.874 7.48 86.951-19.011 120.298-36.953 46.748-115.578 48.484-169.45 40.203-43.809-6.678-192.067-72.125-242.51-228.664 89.355 6.812 136.192-6.456 127.599-104.849-3.606-41.183-24.398-86.283-47.594-129.514-26.802-49.864-77.067-147.723-143.004-77.156-59.392 63.488-54.895 184.943-68.474 265.795-7.569 45.368-15.538 101.91-30.408 148.569-12.822 40.114-42.207 88.509-78.091 99.016-38.6 11.353-86.283-6.367-114.287-22.884-89.222-52.402-157.206-127.021-234.362-188.55v0c12.555-26.891 19.411-44.344 41.939-47.594 53.114-7.836 103.736 49.508 139.041-10.151 21.504-36.419 28.182-76.399 41.939-115.667 18.387-52.313 32.545-109.301 47.594-169.45 25.422-101.91 56.721-254.175 144.829-291.484 44.922-19.1 112.506 6.456 146.699 26.713 92.65 54.806 164.819 134.322 226.616 215.174 141.267 191.399 219.225 408.22 231.023 470.15z" />
<glyph unicode="&#xe917;" glyph-name="youtube" d="M807.135 210.966h-56.186l0.267 32.634c0 14.514 11.932 26.357 26.446 26.357h3.562c14.603 0 26.535-11.887 26.535-26.357l-0.668-32.634zM596.324 280.91c-14.247 0-25.912-9.572-25.912-21.326v-158.765c0-11.709 11.665-21.281 25.912-21.281 14.291 0 26.001 9.572 26.001 21.281v158.765c0 11.754-11.665 21.326-26.001 21.326zM938.652 369.731v-301.991c0-72.437-62.82-131.74-139.62-131.74h-574.108c-76.8 0-139.62 59.258-139.62 131.74v301.991c0 72.437 62.82 131.74 139.62 131.74h574.108c76.8 0 139.62-59.303 139.62-131.74zM263.257 34.927l-0.045 318.152 71.19-0.045v47.149l-189.707 0.267v-46.347l59.214-0.178v-319.043h59.347zM476.561 305.664h-59.347v-169.895c0-24.576 1.469-36.864-0.089-41.183-4.808-13.178-26.49-27.158-34.95-1.425-1.425 4.497-0.178 18.12-0.178 41.45l-0.223 171.053h-58.991l0.178-168.381c0.045-25.823-0.579-45.056 0.223-53.827 1.425-15.449 0.935-33.436 15.271-43.72 26.713-19.233 77.869 2.849 90.646 30.364l-0.134-35.083 47.638-0.045v270.692zM666.401 111.149l-0.134 141.401c-0.045 53.871-40.337 86.15-95.054 42.563l0.223 105.116-59.258-0.089-0.267-362.852 48.751 0.712 4.452 22.617c62.286-57.121 101.421-17.987 101.331 50.577zM852.102 129.892l-44.477-0.223c-0.045-1.781-0.089-3.784-0.134-6.010v-24.843c0-13.267-10.997-24.131-24.309-24.131h-8.726c-13.357 0-24.353 10.819-24.353 24.131v65.313h101.866v38.333c0 28.004-0.712 56.053-3.027 72.036-7.302 50.666-78.447 58.724-114.376 32.768-11.264-8.103-19.901-18.922-24.888-33.525-5.031-14.559-7.569-34.504-7.569-59.793v-84.324c0.045-140.154 170.251-120.342 149.949 0.223zM623.883 587.576c3.072-7.435 7.836-13.49 14.247-18.031 6.367-4.497 14.514-6.723 24.264-6.723 8.548 0 16.117 2.315 22.751 7.079s12.11 11.843 16.651 21.281l-1.113-23.285h66.159v281.288h-52.046v-218.913c0-11.843-9.75-21.549-21.682-21.549-11.887 0-21.682 9.706-21.682 21.549v218.913h-54.361v-189.707c0-24.175 0.445-40.292 1.158-48.44 0.757-8.103 2.627-15.894 5.654-23.418zM423.446 746.429c0 26.98 2.271 48.083 6.723 63.265 4.497 15.137 12.6 27.336 24.309 36.508 11.665 9.216 26.669 13.846 44.833 13.846 15.315 0 28.405-2.983 39.357-8.904 10.997-5.921 19.501-13.579 25.377-23.062 6.010-9.528 10.062-19.278 12.243-29.295 2.226-10.151 3.295-25.422 3.295-46.035v-71.146c0-26.090-1.069-45.279-3.072-57.478s-6.322-23.552-13.045-34.193c-6.589-10.507-15.137-18.387-25.466-23.374-10.463-5.075-22.394-7.524-35.885-7.524-15.093 0-27.782 2.093-38.244 6.411s-18.61 10.863-24.398 19.501c-5.832 8.682-9.928 19.233-12.422 31.521s-3.695 30.809-3.695 55.474l0.045 74.485zM475.27 634.724c0-15.939 11.843-28.939 26.312-28.939s26.268 13 26.268 28.939v149.727c0 15.894-11.798 28.895-26.268 28.895s-26.312-13-26.312-28.895v-149.727zM292.196 559.082h62.375l0.089 215.708 73.728 184.81h-68.252l-39.179-137.261-39.758 137.617h-67.539l78.447-185.255 0.089-215.619z" />
<glyph unicode="&#xe918;" glyph-name="angle-down" d="M891.815 647.235c13.935 13.713 36.285 13.713 50.131 0s13.891-35.885 0-49.597l-404.881-400.874c-13.802-13.713-36.196-13.713-50.131 0l-404.881 400.918c-13.802 13.713-13.802 35.885 0 49.597 13.891 13.713 36.285 13.713 50.131 0l379.859-365.613 379.815 365.613z" />
<glyph unicode="&#xe919;" glyph-name="angle-right" d="M678.378 438.857l-365.613 379.904c-13.713 13.802-13.713 36.196 0 50.131 13.713 13.802 35.885 13.802 49.597 0l400.918-404.881c13.713-13.891 13.713-36.285 0-50.131l-400.918-404.881c-13.713-13.891-35.885-13.802-49.597 0-13.713 13.757-13.713 36.196 0 50.131l365.613 379.77z" />
<glyph unicode="&#xe91a;" glyph-name="angle-up" d="M132.185 239.622c-13.935-13.713-36.285-13.713-50.131 0s-13.891 35.885 0 49.597l404.881 400.918c13.802 13.713 36.196 13.713 50.131 0l404.881-400.918c13.802-13.713 13.802-35.885 0-49.597-13.891-13.713-36.285-13.713-50.087 0l-379.904 365.613-379.815-365.613z" />
<glyph unicode="&#xe91b;" glyph-name="shopping" d="M924 188c11.039 0 20 8.961 20 20s-8.961 20-20 20-20-8.961-20-20 8.961-20 20-20zM60-64h904c33.086 0 60 26.914 60 60v744c0 11.047-8.953 20-20 20h-140c0 110.281-89.719 200-200 200-110.516 0-200-89.398-200-200h-152c-11.047 0-20-8.953-20-20v-232h-272c-11.047 0-20-8.953-20-20v-492c0-33.086 26.914-60 60-60zM40-4v72h464v-72c0-11.031-8.969-20-20-20h-424c-11.031 0-20 8.969-20 20zM964-24h-423.438c2.219 6.258 3.438 12.984 3.438 20v72h440v-72c0-11.031-8.969-20-20-20zM664 920c88.227 0 160-71.773 160-160h-320c0 88.422 71.523 160 160 160zM332 720h132v-92h-20c-11.047 0-20-8.953-20-20s8.953-20 20-20h80c11.047 0 20 8.953 20 20s-8.953 20-20 20h-20v92h320v-92h-20c-11.047 0-20-8.953-20-20s8.953-20 20-20h80c11.047 0 20 8.953 20 20s-8.953 20-20 20h-20v92h120v-612h-440v380c0 11.047-8.953 20-20 20h-192zM504 468v-360h-464v360zM152 348v-40c0-66.297 53.703-120 120-120 66.172 0 120 53.828 120 120v40c11.047 0 20 8.953 20 20s-8.953 20-20 20h-40c-11.047 0-20-8.953-20-20s8.953-20 20-20v-40c0-44.109-35.891-80-80-80-44.188 0-80 35.813-80 80v40c11.047 0 20 8.953 20 20s-8.953 20-20 20h-40c-11.047 0-20-8.953-20-20s8.953-20 20-20zM924 268c11.047 0 20 8.953 20 20v160c0 11.047-8.953 20-20 20s-20-8.953-20-20v-160c0-11.047 8.953-20 20-20z" />
<glyph unicode="&#xe91c;" glyph-name="tag" d="M355.602 546.156c7.82 7.82 7.82 20.484 0 28.281-7.797 7.82-20.461 7.82-28.281 0-7.82-7.797-7.82-20.461 0-28.281 7.82-7.797 20.484-7.797 28.281 0zM553.602 517.875c23.391 23.391 23.391 61.453 0 84.844-23.445 23.445-61.414 23.453-84.859 0-23.453-23.445-23.453-61.391 0-84.844 23.391-23.391 61.461-23.398 84.859 0zM497.023 574.437c7.82 7.813 20.477 7.813 28.297 0 7.789-7.797 7.789-20.477 0-28.273-7.805-7.797-20.5-7.805-28.297 0-7.805 7.797-7.836 20.438 0 28.273zM468.742 376.469c-23.453-23.453-23.453-61.414 0-84.867 23.445-23.445 61.406-23.453 84.859 0 23.398 23.398 23.398 61.469 0 84.867-23.445 23.438-61.414 23.445-84.859 0zM525.32 319.883c-7.82-7.813-20.484-7.813-28.297 0-7.805 7.805-7.836 20.461 0 28.297 7.82 7.82 20.477 7.813 28.297 0 7.797-7.797 7.797-20.492 0-28.297zM350.133 414.961c2.164-10.844 12.711-17.852 23.531-15.688l282.836 56.578c10.828 2.164 17.852 12.703 15.688 23.531-2.164 10.836-12.703 17.852-23.531 15.688l-282.836-56.578c-10.836-2.164-17.859-12.703-15.688-23.531zM608.016 846.852c-5.305 0-10.391-2.102-14.141-5.852l-209.977-209.977c-7.813-7.813-7.813-20.477 0-28.289s20.477-7.813 28.281 0l195.836 195.836 254.547-254.555-449-449-254.555 254.547 140.039 140.039c7.813 7.805 7.813 20.469 0 28.281-7.813 7.805-20.477 7.805-28.289 0l-154.172-154.18c-7.813-7.805-7.813-20.469 0-28.281l282.836-282.836c7.813-7.813 20.469-7.813 28.281 0l477.289 477.289c7.813 7.813 7.813 20.477 0 28.289l-282.836 282.836c-3.75 3.75-8.836 5.852-14.141 5.852zM989.852 954.133l-85.844-85.836c-50.086 37.82-119.25 38.438-168.914 1.563l-70.313 72.352c-0.070 0.070-0.133 0.133-0.203 0.203-23.328 23.328-61.266 23.578-84.875-0.031l-562.117-564.539c-23.445-23.445-23.453-61.414 0-84.867l79.328-79.32c-17.719-50.711-4.938-108.203 33.805-146.93 38.734-38.75 96.227-51.523 146.938-33.82l79.328-79.32c23.445-23.445 61.43-23.438 84.828-0.031l564.602 562.18c23.453 23.453 23.453 61.398 0 84.844-0.070 0.070-0.133 0.133-0.203 0.203l-72.344 70.297c36.742 49.328 36.602 118.523-1.57 168.93l85.836 85.836c7.813 7.813 7.813 20.477 0 28.289s-20.469 7.813-28.281 0zM892.289 684c-3.781-3.789-5.891-8.93-5.859-14.289 0.039-5.352 2.227-10.469 6.063-14.195l85.719-83.305c7.758-7.844 7.672-20.438-0.055-28.156l-564.594-562.18c-7.805-7.805-20.5-7.805-28.297 0l-88.703 88.695c-3.828 3.836-8.953 5.859-14.141 5.859-2.875 0-5.773-0.617-8.492-1.891-38.461-18.047-84.648-9.82-114.922 20.477-30.297 30.273-38.523 76.453-20.477 114.914 3.578 7.633 2 16.68-3.961 22.641l-88.695 88.695c-7.805 7.805-7.805 20.492 0.023 28.328l562.125 564.539c7.781 7.773 20.359 7.82 28.188 0.086l83.297-85.719c7.469-7.688 20.258-8.438 28.492-0.211 34.234 34.25 87.844 37.906 127.336 11.336l-29.336-29.336c-22.305 10.625-49.852 6.727-68.289-11.711-23.391-23.398-23.391-61.469 0-84.859 23.445-23.445 61.414-23.453 84.867 0 18.859 18.859 22.164 46.523 11.734 68.313l29.328 29.328c26.367-39.031 23.328-92.688-11.352-127.359zM834.289 770.297c7.805-7.805 7.836-20.461 0-28.297-7.813-7.813-20.477-7.813-28.289 0-7.805 7.805-7.805 20.5-0.008 28.297 7.805 7.789 20.5 7.805 28.297 0z" />
<glyph unicode="&#xe91d;" glyph-name="shopping-1" d="M460.734 291.258c7.805 7.82 7.805 20.484 0 28.305-7.82 7.797-20.477 7.797-28.297 0-7.805-7.82-7.805-20.484 0-28.305 7.82-7.797 20.477-7.797 28.297 0zM468.016 761.992v-40c0-66.297 53.703-120 120-120 66.172 0 120.008 53.828 120.008 120v40c11.047 0 20 8.953 20 20s-8.953 20-20 20h-40c-11.047 0-20-8.953-20-20s8.953-20 20-20v-40c0-44.109-35.891-80-80.008-80-44.18 0-80 35.805-80 80v40c11.047 0 20 8.953 20 20s-8.953 20-20 20h-40c-11.047 0-20-8.953-20-20s8.953-20 20-20zM232.438-21.883c3.906-3.898 9.016-5.844 14.133-5.844s10.234 1.953 14.141 5.852l61.414 61.414c20.008 19.992 29.641 47.375 26.859 75.047l22.023 21.266c17.477 16.844 40.453 26.125 64.688 26.125h263.328c47.172 0 91.758 18.117 125.539 51.016 0.5 0.484 0.969 0.992 1.414 1.531l179.172 215.156c28.469 33.688 24.211 84.266-9.508 112.766-33.5 28.234-83.703 24.172-112.258-8.953l-19.352-20.016v390.523c0 11.047-8.961 20-20 20h-514.023c-11.039 0-20-8.953-20-20v-448.102c-77.453-16.258-138.883-64.336-171.969-134.617-26.094 1.352-51.539-8.242-70.422-27.148l-61.727-61.422c-3.766-3.75-5.883-8.844-5.891-14.156-0.008-5.32 2.109-10.414 5.867-14.172zM824.031 884v-411.883l-57.883-59.844c-14.898 18.305-37.602 29.711-62.125 29.711h-231.891c-1.281 0-2.672 0.297-4.070 0.859-31.156 12.703-64.148 19.141-98.047 19.141-6.695 0-13.367-0.242-20-0.68v422.695zM332.875 419.352c40.461 5.852 80.922 2.414 120.164-13.578 6.234-2.516 12.664-3.797 19.094-3.797h231.891c21.688 0 40-17.688 40-40 0-22.055-17.945-40-40-40h-174.008c-11.039 0-20-8.953-20-20s8.961-20 20-20h174.008c44.117 0 80 35.891 80 80 0 3.531-0.258 7.039-0.711 10.5 4.172 4.273 125.063 129.305 129.25 133.641 0.305 0.32 0.609 0.648 0.891 0.984 14.25 16.828 39.555 18.953 56.391 4.766 16.852-14.242 18.984-39.531 4.656-56.484l-178.57-214.438c-26.18-25.141-60.555-38.969-96.906-38.969h-263.328c-34.648 0-67.477-13.25-92.461-37.336l-8.82-8.516c-3.531 5.43-7.641 10.5-12.281 15.133l-122.844 122.844c-6.563 6.563-14.008 12.016-22.063 16.32 30.555 60.266 85.133 98.68 155.648 108.93zM95.875 265.82c21.016 21.047 54.602 20.531 75.125-0.008l122.859-122.852c20.594-20.555 20.961-54.18-0.008-75.125l-47.297-47.289-198.227 197.961z" />
<glyph unicode="&#xe91e;" glyph-name="credit-card1" horiz-adv-x="1022" d="M592.836 656.086c-11.039 0-19.992-8.961-19.992-20 0-11.031 8.953-19.992 19.992-19.992s19.992 8.961 19.992 19.992c0 11.039-8.953 20-19.992 20zM471.586 265.468c7.805 7.82 7.805 20.477 0 28.297-7.813 7.797-20.469 7.797-28.289 0-7.797-7.82-7.797-20.477 0-28.297 7.82-7.797 20.477-7.797 28.289 0zM231.305-58.086c7.75-7.813 20.367-7.898 28.219-0.164l96.938 95.5c16.469 16.469 21.477 40.852 14.234 62.047l20.852 20.109c11.227 10.844 26.008 16.82 41.633 16.82h265.805c47.156 0 91.727 18.109 125.516 50.992 1.391 1.352-10.555-12.719 181.336 216.625 28.461 33.672 24.203 84.234-9.5 112.727-33.492 28.227-83.664 24.172-112.203-8.922l-117.984-121.266c-14.898 18.336-37.617 29.766-62.164 29.766h-222.961c-31.727 13.273-65.391 19.992-100.125 19.992-96.25 0-180.336-44.438-225.469-127.844-19.008 3.602-39.055-2.148-53.477-16.57l-95.117-95.398c-7.766-7.789-7.781-20.391-0.031-28.195zM380.891 396.156c30.625 0 60.234-6.164 88.023-18.32 2.531-1.109 5.258-1.68 8.016-1.68h227.055c21.68 0 39.992-17.68 39.992-39.984 0-22.055-17.938-39.992-39.992-39.992h-163.133c-11.039 0-19.992-8.953-19.992-19.992 0-11.047 8.953-19.992 19.992-19.992h163.133c44.102 0 79.977 35.875 79.977 79.977 0 3.516-0.25 7-0.703 10.453 114.133 117.32 130.227 133.805 130.914 134.625 14.25 16.82 39.547 18.953 56.375 4.766 16.844-14.242 18.977-39.523 4.688-56.438l-179.336-214.391c-26.188-25.141-60.57-38.977-96.914-38.977h-265.805c-26.047 0-50.703-9.961-69.406-28.031l-16.992-16.398-156.641 156.633c36.609 68.68 105.305 107.742 190.75 107.742zM130.25 263.468c6.594 6.594 16.719 7.781 24.758 2.813 3.055-1.859 174.070-173.297 175.125-174.711 5.852-7.883 5.016-19.078-1.836-25.938l-82.641-81.414-196.461 197.961zM312.914 536.117h479.867c33.078 0 59.984 26.906 59.984 59.984 0 50.398 0 267.672 0 303.914 0 33.078-26.906 59.984-59.984 59.984h-479.867c-33.078 0-59.984-26.906-59.984-59.984v-303.914c0-33.078 26.906-59.984 59.984-59.984zM812.774 800.047h-519.852v39.984h519.852zM792.782 576.101h-479.867c-11.023 0-19.992 8.977-19.992 20v163.953h519.852v-163.953c0-11.023-8.969-20-19.992-20zM312.914 920.008h479.867c11.023 0 19.992-8.969 19.992-19.992v-19.992h-519.852v19.992c0 11.023 8.969 19.992 19.992 19.992zM752.789 656.086h-79.977c-11.039 0-19.992-8.953-19.992-20 0-11.039 8.953-19.992 19.992-19.992h79.977c11.047 0 20 8.953 20 19.992 0 11.047-8.953 20-20 20z" />
<glyph unicode="&#xe91f;" glyph-name="settings" d="M371.726 700.493c0 11.222 9.819 21.041 21.041 21.041h-126.247c-11.222 0-21.041-9.819-21.041-21.041v0c0-11.222 9.819-21.041 21.041-21.041h126.247c-11.222 0-21.041 9.819-21.041 21.041zM427.836 721.534h-35.068c11.222 0 21.041-9.819 21.041-21.041s-9.819-21.041-21.041-21.041h364.712c11.222 0 21.041 9.819 21.041 21.041v0c0 11.222-9.819 21.041-21.041 21.041h-329.644zM392.767 763.616c-35.068 0-63.123-28.055-63.123-63.123s28.055-63.123 63.123-63.123 63.123 28.055 63.123 63.123-28.055 63.123-63.123 63.123zM392.767 679.452c-11.222 0-21.041 9.819-21.041 21.041s9.819 21.041 21.041 21.041 21.041-9.819 21.041-21.041-9.819-21.041-21.041-21.041zM371.726 307.726c0 11.222 9.819 21.041 21.041 21.041h-126.247c-11.222 0-21.041-9.819-21.041-21.041v0c0-11.222 9.819-21.041 21.041-21.041h126.247c-11.222 0-21.041 9.819-21.041 21.041zM427.836 328.767h-35.068c11.222 0 21.041-9.819 21.041-21.041s-9.819-21.041-21.041-21.041h364.712c11.222 0 21.041 9.819 21.041 21.041v0c0 11.222-9.819 21.041-21.041 21.041h-329.644zM392.767 370.849c-35.068 0-63.123-28.055-63.123-63.123s28.055-63.123 63.123-63.123 63.123 28.055 63.123 63.123-28.055 63.123-63.123 63.123zM392.767 286.685c-11.222 0-21.041 9.819-21.041 21.041s9.819 21.041 21.041 21.041 21.041-9.819 21.041-21.041-9.819-21.041-21.041-21.041zM652.274 504.11c0-11.222-9.819-21.041-21.041-21.041h126.247c11.222 0 21.041 9.819 21.041 21.041v0c0 11.222-9.819 21.041-21.041 21.041h-126.247c11.222 0 21.041-9.819 21.041-21.041zM596.164 483.068h35.068c-11.222 0-21.041 9.819-21.041 21.041s9.819 21.041 21.041 21.041h-364.712c-11.222 0-21.041-9.819-21.041-21.041v0c0-11.222 9.819-21.041 21.041-21.041h329.644zM631.233 440.986c35.068 0 63.123 28.055 63.123 63.123s-28.055 63.123-63.123 63.123-63.123-28.055-63.123-63.123 28.055-63.123 63.123-63.123zM631.233 525.151c11.222 0 21.041-9.819 21.041-21.041s-9.819-21.041-21.041-21.041-21.041 9.819-21.041 21.041 9.819 21.041 21.041 21.041zM371.726 700.493c0 11.222 9.819 21.041 21.041 21.041h-126.247c-11.222 0-21.041-9.819-21.041-21.041v0c0-11.222 9.819-21.041 21.041-21.041h126.247c-11.222 0-21.041 9.819-21.041 21.041zM427.836 721.534h-35.068c11.222 0 21.041-9.819 21.041-21.041s-9.819-21.041-21.041-21.041h364.712c11.222 0 21.041 9.819 21.041 21.041v0c0 11.222-9.819 21.041-21.041 21.041h-329.644zM392.767 763.616c-35.068 0-63.123-28.055-63.123-63.123s28.055-63.123 63.123-63.123 63.123 28.055 63.123 63.123-28.055 63.123-63.123 63.123zM392.767 679.452c-11.222 0-21.041 9.819-21.041 21.041s9.819 21.041 21.041 21.041 21.041-9.819 21.041-21.041-9.819-21.041-21.041-21.041zM371.726 307.726c0 11.222 9.819 21.041 21.041 21.041h-126.247c-11.222 0-21.041-9.819-21.041-21.041v0c0-11.222 9.819-21.041 21.041-21.041h126.247c-11.222 0-21.041 9.819-21.041 21.041zM427.836 328.767h-35.068c11.222 0 21.041-9.819 21.041-21.041s-9.819-21.041-21.041-21.041h364.712c11.222 0 21.041 9.819 21.041 21.041v0c0 11.222-9.819 21.041-21.041 21.041h-329.644zM392.767 370.849c-35.068 0-63.123-28.055-63.123-63.123s28.055-63.123 63.123-63.123 63.123 28.055 63.123 63.123-28.055 63.123-63.123 63.123zM392.767 286.685c-11.222 0-21.041 9.819-21.041 21.041s9.819 21.041 21.041 21.041 21.041-9.819 21.041-21.041-9.819-21.041-21.041-21.041zM652.274 504.11c0-11.222-9.819-21.041-21.041-21.041h126.247c11.222 0 21.041 9.819 21.041 21.041v0c0 11.222-9.819 21.041-21.041 21.041h-126.247c11.222 0 21.041-9.819 21.041-21.041zM596.164 483.068h35.068c-11.222 0-21.041 9.819-21.041 21.041s9.819 21.041 21.041 21.041h-364.712c-11.222 0-21.041-9.819-21.041-21.041v0c0-11.222 9.819-21.041 21.041-21.041h329.644zM631.233 440.986c35.068 0 63.123 28.055 63.123 63.123s-28.055 63.123-63.123 63.123-63.123-28.055-63.123-63.123 28.055-63.123 63.123-63.123zM631.233 525.151c11.222 0 21.041-9.819 21.041-21.041s-9.819-21.041-21.041-21.041-21.041 9.819-21.041 21.041 9.819 21.041 21.041 21.041z" />
<glyph unicode="&#xe920;" glyph-name="piggy-bank" d="M491.999 740c11.047 0 20 8.953 20 20v80c0 11.047-8.953 20-20 20s-20-8.953-20-20v-80c0-11.047 8.953-20 20-20zM271.999 360.001c33.086 0 60 26.914 60 60s-26.914 60-60 60-60-26.914-60-60 26.914-60 60-60zM271.999 440.001c11.031 0 20-8.969 20-20s-8.969-20-20-20c-11.023 0-20 8.969-20 20s8.977 20 20 20zM371.999 560.001h160c11.047 0 20 8.953 20 20s-8.953 20-20 20h-160c-11.047 0-20-8.953-20-20s8.953-20 20-20zM611.999 600.001c11.039 0 20-8.961 20-20s-8.961-20-20-20-20 8.961-20 20 8.961 20 20 20zM62.523 228.001h59.562c20.68-45.672 51.476-86.547 89.914-119.242v-110.242c0-34.469 28.047-62.516 62.523-62.516h34.961c34.469 0 62.516 28.047 62.516 62.516v34.805c19.727-3.508 39.812-5.32 60-5.32h120c20.187 0 40.273 1.812 60 5.32v-34.805c0-34.469 28.047-62.516 62.523-62.516h34.961c34.469 0 62.516 28.047 62.516 62.516v110.289c65.367 56.219 110.609 147.867 118.726 241.453 0.336 3.852 0.586 7.75 0.781 11.656 31.164 3.891 68.242 16.672 91.305 39.711 41.883 41.922 51.328 103.078 29.977 153.5-7.055 16.68-17.141 31.656-29.984 44.5-7.805 7.805-20.469 7.812-28.281 0s-7.812-20.477 0-28.289c9.18-9.18 16.383-19.875 21.422-31.797 15.234-35.976 8.508-79.68-21.414-109.633-13.016-13-38.539-23.773-63.469-27.695-10.781 145.445-120.39 270.468-267.367 307.038 18.219 26.492 28.312 58.133 28.312 90.75 0 88.226-71.781 160-160 160-88.226 0-160-71.773-160-160 0-31.398 9.422-62.031 26.469-87.976-28.273-6.203-55.469-15.969-81.305-29.242-22.953 45.773-69.68 76.008-121.898 77.172-6.031 0.187-12.039-2.172-16.398-6.422-4.367-4.242-6.867-10.156-6.867-16.211v-197.164c-16.836-31.492-28.484-65.101-34.734-100.156h-34.75c-34.476 0-62.523-28.047-62.523-62.523v-86.953c0-34.476 28.047-62.523 62.523-62.523zM491.999 920c66.172 0 120-53.828 120-120 0-66.398-53.844-120-120-120-65.281 0-120 52.641-120 120 0 66.172 53.836 120 120 120zM40 377.478c0 12.422 10.102 22.523 22.523 22.523h49.82c11.211 0 20.766 8.398 22.227 19.523 4.891 37.078 16.523 72.476 34.578 105.219 1.867 3.32 2.852 7.078 2.852 10.898v182.336c34.844-7.102 63.914-32.461 75.156-67.164 2.141-6.5 7.008-11.594 13.367-13.992 6.336-2.383 13.336-1.766 19.195 1.703 34.008 20.102 70.961 33.023 109.961 38.5 28.727-23.922 64.68-37.023 102.32-37.023 36.547 0 71.672 12.422 99.984 35.117 147.883-26 259.007-151.164 259.96-294.624 0.055-9.008-0.305-18.008-1.070-26.766-7.477-86.226-49.844-170.25-110.695-219.375-5.195-4.273-8.18-10.586-8.18-17.312v-118.515c0-12.422-10.102-22.523-22.516-22.523h-34.961c-12.422 0-22.523 10.102-22.523 22.523v99.554c0 11.047-8.953 20-20 20s-20-8.953-20-20v-24.047c-19.648-3.984-39.766-6.031-60-6.031h-120c-20.234 0-40.351 2.047-60 6.031v24.047c0 11.047-8.953 20-20 20s-20-8.953-20-20v-99.554c0-12.422-10.102-22.523-22.516-22.523h-34.961c-12.422 0-22.523 10.102-22.523 22.523v118.515c0 6.875-3.086 13.266-8.336 17.422-39.297 31.742-70.172 73.109-89.359 119.812-3.516 8.336-11.625 13.727-20.664 13.727h-71.117c-12.422 0-22.523 10.102-22.523 22.523z" />
<glyph unicode="&#xe921;" glyph-name="wallet" d="M672 288c-11.039 0-20-8.961-20-20s8.961-20 20-20 20 8.961 20 20-8.961 20-20 20zM400 308c-11.031 0-20 8.969-20 20s8.969 20 20 20c7.086 0 14.563-3.617 21.633-10.453 7.938-7.68 20.602-7.477 28.281 0.469 7.68 7.938 7.469 20.594-0.469 28.273-10.148 9.828-20.305 15.383-29.445 18.414v23.297c0 11.047-8.953 20-20 20s-20-8.953-20-20v-23.438c-23.281-8.258-40-30.492-40-56.563 0-33.086 26.914-60 60-60 11.023 0 20-8.969 20-20s-8.977-20-20-20c-8.547 0-17.773 5.375-25.977 15.133-7.102 8.453-19.719 9.547-28.172 2.438-8.461-7.109-9.547-19.727-2.445-28.18 10.695-12.719 23.266-21.578 36.594-26.047v-23.344c0-11.047 8.953-20 20-20s20 8.953 20 20v23.438c23.273 8.258 40 30.492 40 56.563 0 33.086-26.914 60-60 60zM240 628c11.047 0 20 8.953 20 20v80c0 11.047-8.953 20-20 20s-20-8.953-20-20v-80c0-11.047 8.953-20 20-20zM944 488v160c0 55.141-44.859 100-100 100h-112v152c0 33.086-26.914 60-60 60h-372c-33.086 0-60-26.914-60-60v-72h-60c-33.086 0-60-26.914-60-60v-20h-20c-55.141 0-100-44.859-100-100v-612c0-55.141 44.859-100 100-100h612c48.289 0 88.695 34.406 97.984 80h34.016c55.141 0 100 44.859 100 100v52h20c33.086 0 60 26.914 60 60v180c0 44.109-35.891 80-80 80zM984 408c0-22.094-17.906-40-40-40v80c22.055 0 40-17.945 40-40zM844 708c33.086 0 60-26.914 60-60v-280h-92v120c0 48.289-34.406 88.695-80 97.984v122.016zM280 900c0 11.031 8.969 20 20 20h372c11.031 0 20-8.969 20-20v-312h-92v180c0 33.086-26.914 60-60 60h-260zM480 588v200h60c11.031 0 20-8.969 20-20v-180zM360 588v200h80v-200zM160 768c0 11.031 8.969 20 20 20h140v-200h-160zM100 708h20v-120h-15.719c-33.055 0-64.281 23.938-64.281 60 0 33.086 26.914 60 60 60zM712-24h-612c-33.086 0-60 26.914-60 60v533.234c17.883-13.32 40.344-21.234 64.281-21.234h607.719c33.086 0 60-26.914 60-60v-120h-140c-33.086 0-60-26.914-60-60v-80c0-33.086 26.914-60 60-60h140v-132c0-33.086-26.914-60-60-60zM904 116c0-33.086-26.914-60-60-60h-32v112h92zM964 208h-332c-11.031 0-20 8.969-20 20v80c0 11.031 8.969 20 20 20h312c14.273 0 27.969 3.734 40 10.711v-110.711c0-11.031-8.969-20-20-20zM844 288h-92c-11.047 0-20-8.953-20-20s8.953-20 20-20h92c11.047 0 20 8.953 20 20s-8.953 20-20 20z" />
<glyph unicode="&#xe922;" glyph-name="wishlist" d="M420 336c-11.039 0-20-8.961-20-20s8.961-20 20-20 20 8.961 20 20-8.961 20-20 20zM420 216c-11.039 0-20-8.961-20-20s8.961-20 20-20 20 8.961 20 20-8.961 20-20 20zM764 336h-264c-11.047 0-20-8.953-20-20s8.953-20 20-20h264c11.047 0 20 8.953 20 20s-8.953 20-20 20zM764 216h-264c-11.047 0-20-8.953-20-20s8.953-20 20-20h264c11.047 0 20 8.953 20 20s-8.953 20-20 20zM60-10.664v-33.336c0-11.047 8.953-20 20-20s20 8.953 20 20v33.336l8 10.664c33.531 44.703 52 100.109 52 156v564h20c11.031 0 20-8.969 20-20v-184c0-11.047 8.953-20 20-20s20 8.953 20 20v184c0 33.086-26.914 60-60 60h-20v40c0 19.672-7.070 38.25-20 52.875v47.125c0 33.086-26.914 60-60 60s-60-26.914-60-60v-47.141c-12.797-14.508-20-33.297-20-52.859v-644c0-55.898 18.469-111.297 52-156zM120 176h-80v544h80zM40 760v40c0 21.961 17.891 40 40 40 21.734 0 40-17.625 40-40v-40zM80 920c11.031 0 20-8.969 20-20v-22.563c-6.477 1.68-13.195 2.563-20 2.563s-13.523-0.883-20-2.555v22.555c0 11.031 8.969 20 20 20zM119.070 136c-3.531-38.109-17.063-75.133-39.070-106.484-22.008 31.352-35.539 68.375-39.070 106.484zM1024 636v100c0 44.109-35.891 80-80 80-4.523 0-564 0-564 0-55.141 0-100-44.859-100-100v-620h-60c-11.047 0-20-8.953-20-20 0-77.195 62.805-140 140-140h464c58.539 0 100 49.852 100 104.281v575.719h100c11.047 0 20 8.953 20 20zM340-24c-48.289 0-88.703 34.414-97.992 80h461.992v-20c0-22.492 7.469-43.273 20.047-60zM864 736v-695.719c0-33.125-24.008-64.281-60-64.281-33.086 0-60 26.914-60 60v40c0 11.047-8.953 20-20 20h-404v620c0 33.086 26.914 60.203 60 60.203h494.695c-6.852-11.883-10.695-25.789-10.695-40.203zM984 656h-80v80c0 22.375 18.172 40 40 40 22.055 0 40-17.945 40-40zM542.734 451.305c11.398-9.625 23.195-19.578 35.711-30.422 3.758-3.258 8.422-4.883 13.094-4.883s9.344 1.625 13.102 4.883c12.508 10.844 24.297 20.797 35.703 30.414 63.664 53.727 109.656 92.547 109.656 149.547 0 53.359-39.195 95.156-89.234 95.156-33.648 0-55.594-18.039-69.227-36.391-13.633 18.352-35.586 36.391-69.242 36.391-50.031 0-89.219-41.797-89.219-95.156 0-57 46-95.813 109.656-149.539zM522.297 656c36.516 0 49.461-43.57 49.992-45.43 2.422-8.578 10.242-14.477 19.164-14.523h0.102c8.914 0 16.766 5.953 19.234 14.523 0.531 1.859 13.477 45.43 49.969 45.43 28.070 0 49.242-23.711 49.242-55.156 0-38.414-35.93-68.734-95.461-118.977-7.461-6.297-15.094-12.734-23-19.492-7.914 6.758-15.547 13.195-23.008 19.5-59.523 50.234-95.453 80.555-95.453 118.969 0 31.445 21.164 55.156 49.219 55.156z" />
<glyph unicode="&#xe923;" glyph-name="hand" horiz-adv-x="1022" d="M471.586 265.468c7.805 7.82 7.805 20.477 0 28.297-7.813 7.797-20.469 7.797-28.289 0-7.797-7.82-7.797-20.477 0-28.297 7.82-7.797 20.477-7.797 28.289 0zM376.899 740.062c0-121.273 98.664-219.945 219.938-219.945s219.938 98.672 219.938 219.945-98.664 219.938-219.938 219.938-219.938-98.664-219.938-219.938zM776.789 740.062c0-99.227-80.727-179.953-179.953-179.953s-179.953 80.727-179.953 179.953c0 99.219 80.727 179.945 179.953 179.945s179.953-80.727 179.953-179.945zM231.305-58.086c7.75-7.813 20.367-7.898 28.219-0.164l96.938 95.5c16.469 16.469 21.477 40.852 14.234 62.047l20.852 20.109c11.227 10.844 26.008 16.82 41.633 16.82h265.805c47.156 0 91.727 18.109 125.516 50.992 1.391 1.352-10.555-12.719 181.336 216.625 28.461 33.672 24.203 84.234-9.5 112.727-33.492 28.227-83.664 24.172-112.203-8.922l-117.984-121.266c-14.898 18.336-37.617 29.766-62.164 29.766h-222.961c-31.727 13.273-65.391 19.992-100.125 19.992-96.281 0-180.352-44.469-225.469-127.844-19.008 3.602-39.055-2.148-53.477-16.57l-95.117-95.398c-7.766-7.789-7.781-20.391-0.031-28.203zM380.891 396.156c30.625 0 60.234-6.164 88.023-18.32 2.531-1.109 5.258-1.68 8.016-1.68h227.055c21.68 0 39.992-17.68 39.992-39.984 0-22.055-17.938-39.992-39.992-39.992h-163.133c-11.039 0-19.992-8.953-19.992-19.992 0-11.047 8.953-19.992 19.992-19.992h163.133c44.102 0 79.977 35.875 79.977 79.977 0 3.516-0.25 7-0.703 10.453 114.133 117.32 130.227 133.805 130.914 134.625 14.25 16.82 39.547 18.953 56.375 4.766 16.844-14.242 18.977-39.523 4.688-56.438l-179.336-214.391c-26.188-25.141-60.57-38.977-96.914-38.977h-265.805c-26.047 0-50.703-9.961-69.406-28.031l-16.992-16.398-156.641 156.633c36.609 68.68 105.305 107.742 190.75 107.742zM130.25 263.468c6.594 6.594 16.719 7.781 24.758 2.813 3.461-2.109-6.477 6.938 173.18-172.469 7.992-7.992 7.563-20.727 0.109-28.18l-82.641-81.414-196.461 197.961zM572.844 860.023v-23.43c-23.273-8.25-39.992-30.477-39.992-56.547 0-33.070 26.906-59.984 59.984-59.984 11.023 0 19.992-8.969 19.992-19.992s-8.969-19.992-19.992-19.992c-8.539 0-17.766 5.367-25.961 15.125-7.109 8.453-19.719 9.539-28.172 2.438-8.453-7.109-9.547-19.719-2.438-28.172 10.688-12.711 23.258-21.57 36.578-26.039v-23.336c0-11.047 8.953-19.992 19.992-19.992s19.992 8.945 19.992 19.992v23.43c23.273 8.258 39.992 30.484 39.992 56.547 0 33.078-26.906 59.984-59.984 59.984-11.023 0-19.992 8.969-19.992 19.992s8.969 20 19.992 20c7.086 0 14.563-3.617 21.625-10.453 7.938-7.68 20.594-7.469 28.273 0.461 7.68 7.938 7.469 20.594-0.461 28.273-10.148 9.82-20.305 15.375-29.445 18.406v23.289c0 11.047-8.953 20-19.992 20s-19.992-8.953-19.992-20z" />
<glyph unicode="&#xe924;" glyph-name="call-center" d="M612.063 480c11.039 0 20 8.961 20 20s-8.961 20-20 20c-11.063 0-20-8.961-20-20s8.938-20 20-20zM412.063 480c11.039 0 20 8.961 20 20s-8.961 20-20 20c-11.063 0-20-8.961-20-20s8.938-20 20-20zM72-0.102v-43.898c0-11.047 8.953-20 20-20h840c11.047 0 20 8.953 20 20v43.938c0 79.539-44.68 153.047-127.367 183.227 29.883 26.102 48.047 64.336 48.047 105.68 0 11.039-8.953 20-20 20-48.109 0-88.656 34.023-98.422 79.156h57.805c33.047 0 59.938 26.914 59.938 60v92c0 26.086-16.727 48.328-40 56.57v43.43c0 176.445-143.523 320-319.938 320-176.82 0-320.063-143.102-320.063-320v-43.461c-23.273-8.273-40-30.508-40-56.539v-92c0-33.086 26.945-60 60.063-60h57.68c-9.75-45.133-50.258-79.156-98.32-79.156-11.047 0-20-8.961-20-20 0-41.398 18.211-79.672 48.172-105.789-82.367-30.203-127.594-104.453-127.594-183.156zM830.992 270.516c-6.227-33.539-29.305-62.008-61.555-74.797l-121.164 15.734-12.945 50.594c37.773 22.586 67.875 54.5 88.047 91.961 18.82-43.609 59.242-75.953 107.617-83.492zM672.359 600c-55.25 0-100.203 45.516-100.203 101.461 0 11.047-8.953 20-20 20-11.039 0-20-8.953-20-20 0-55.945-44.953-101.461-100.219-101.461h-119.875c0 110.281 89.719 200 200 200 110.492 0 200-89.422 200-200zM312 560h119.938c50.969 0 95.672 27.57 120.219 68.711 24.547-41.141 69.242-68.711 120.203-68.711h39.641v-92c0-75.648-41.898-143.984-109.336-178.336-28.219-14.375-58.703-21.664-90.602-21.664-31.812 0-62.203 7.234-90.344 21.5-18.883 9.57-36.078 22.039-51.117 37.086-37.789 37.766-58.602 87.992-58.602 141.414zM425.836 243.953c27.383-10.578 56.289-15.953 86.227-15.953 30.055 0 59.070 5.422 86.57 16.109l12.695-49.648c-6.664-49.516-48.672-86.461-99.070-86.461-50.391 0-92.398 36.93-99.078 86.43zM832 448c0-11.031-8.945-20-19.938-20h-60.063v132h60.063c10.992 0 19.938-8.969 19.938-20zM512.063 920c154.359 0 279.938-125.609 279.938-280v-40h-39.938c0 132.602-107.32 240-240 240-132.336 0-240-107.664-240-240h-40.063v40c0 154.703 125.273 280 280.063 280zM192 448v92c0 11.008 8.984 19.977 20.063 20h59.938v-132h-59.938c-11.063 0-20.063 8.969-20.063 20zM300.656 354.063c10.961-20.25 24.914-39.031 41.664-55.766 14.094-14.102 29.805-26.289 46.805-36.438l-12.883-50.414-121.5-15.766c-32.289 12.797-55.398 41.281-61.633 74.836 48.359 7.547 88.758 39.922 107.547 83.547zM252.625 155.078l2.219 0.281c0.016 0.008 0.031 0.008 0.047 0.008l122.242 15.859c16.195-60.18 70.773-103.227 135.125-103.227s118.922 43.047 135.109 103.234c6.094-0.797-32.109 4.164 124.5-16.164 87.68-11.391 140.133-77.102 140.133-155.133v-23.938h-800v23.898c0 76.57 52.422 143.727 140.625 155.18zM458.594 342.531c16.789-7.914 34.781-11.93 53.461-11.93 18.25 0 35.883 3.852 52.43 11.445 10.039 4.602 14.438 16.477 9.828 26.516-4.602 10.039-16.477 14.445-26.516 9.836-11.273-5.172-23.297-7.797-35.734-7.797-12.742 0-25 2.727-36.414 8.109-9.992 4.711-21.906 0.43-26.617-9.563s-0.43-21.914 9.563-26.617zM692.063 28h80c11.047 0 20 8.953 20 20s-8.953 20-20 20h-80c-11.047 0-20-8.953-20-20s8.953-20 20-20zM852 68c11.039 0 20-8.961 20-20s-8.961-20-20-20-20 8.961-20 20 8.961 20 20 20z" />
<glyph unicode="&#xe925;" glyph-name="hand-bag" horiz-adv-x="1022" d="M852.188 460c0-11.039 8.961-20 20-20s20 8.961 20 20-8.961 20-20 20-20-8.961-20-20zM872.188 400c-11.047 0-20-8.953-20-20v-64c0-33.086-26.914-60-60-60-11.047 0-20-8.953-20-20s8.953-20 20-20c55.141 0 100 44.859 100 100v64c0 11.047-8.953 20-20 20zM856.602 714.82l-23.398 46.789c-61.203 122.367-184.203 198.391-321.016 198.391-136.805 0-259.805-76.023-321.008-198.391l-23.414-46.813c-21.383-9.461-35.578-30.641-35.578-54.797v-22.016c-45.586-9.289-80-49.688-80-97.984v-171.055l-22.297-235.039c-5.055-50.5 11.586-101.047 45.641-138.688 34.063-37.633 82.703-59.219 133.461-59.219h606.398c50.75 0 99.398 21.586 133.453 59.219 34.063 37.633 50.695 88.188 45.656 138.586l-22.313 235.141v171.055c0 48.289-34.406 88.695-80 97.984v22.016c0 24.203-14.234 45.406-35.586 54.82zM332.188 640v20c0 22.664-12.633 42.43-31.227 52.633 41.5 78.688 121.93 127.367 211.227 127.367 88.781 0 169.969-49.164 211.234-127.367-18.594-10.203-31.234-29.969-31.234-52.633v-20zM172.188 660c0 11.195 9.063 20 20 20h80c11.031 0 20-8.969 20-20v-20h-120zM732.188 660c0 11.023 8.961 19.984 19.977 20 0.016 0 0.031-0.008 0.039-0.008 0.023 0 0.047 0.008 0.070 0.008h79.914c11.008 0 20-8.813 20-20v-20h-120zM512.188 920c121.563 0 230.859-67.547 285.234-176.289l11.859-23.711h-44.727l-2.914 5.844c-46.305 92.641-141.813 154.156-249.453 154.156-105.57 0-202.172-59.625-249.453-154.164l-2.914-5.836h-44.727l11.867 23.711c54.375 108.742 163.672 176.289 285.227 176.289zM919.188 22.055c-26.484-29.266-64.32-46.055-103.797-46.055h-606.398c-39.477 0-77.313 16.789-103.797 46.055-26.492 29.273-39.438 68.594-35.492 107.977l8.766 92.414c31.641-51.797 88.711-86.445 153.719-86.445h200c0-44.109 35.891-80 80-80 44.117 0 80 35.891 80 80h200c65.016 0 122.078 34.648 153.727 86.445l8.773-92.516c3.93-39.281-9.008-78.602-35.5-107.875zM552.188 136c0-22.055-17.945-40-40-40s-40 17.945-40 40v80h80zM932.188 540v-224c0-77.195-62.805-140-140-140h-200v60c0 11.047-8.953 20-20 20h-120c-11.047 0-20-8.953-20-20v-60h-200c-77.195 0-140 62.805-140 140 0 35.086 0 198.070 0 224 0 33.086 26.914 60 60 60h720c33.086 0 60-26.914 60-60zM526.336 539c-7.813 7.813-20.477 7.813-28.289 0l-84.859-84.859c-7.813-7.813-7.813-20.469 0-28.281l84.859-84.867c3.906-3.898 9.023-5.852 14.141-5.852s10.242 1.953 14.141 5.852l84.867 84.867c7.805 7.805 7.805 20.469 0 28.281zM512.188 383.422l-56.57 56.578 56.57 56.578 56.578-56.578z" />
<glyph unicode="&#xe926;" glyph-name="online-shopping" d="M924 488c11.039 0 20 8.961 20 20s-8.961 20-20 20-20-8.961-20-20 8.961-20 20-20zM512 288c-11.039 0-20-8.961-20-20s8.961-20 20-20 20 8.961 20 20-8.961 20-20 20zM312 648h23.602l30.344-151.766c5.594-27.945 30.344-48.234 58.852-48.234h174.406c28.508 0 53.258 20.289 58.852 48.242l30.344 151.758h23.602c11.047 0 20 8.953 20 20s-8.953 20-20 20c-16.195 0-80.484 0-105.586 0l-35.438 106.32c-3.5 10.484-14.82 16.148-25.297 12.656-10.484-3.5-16.148-14.82-12.656-25.297l31.227-93.68h-104.5l31.227 93.68c3.492 10.477-2.172 21.797-12.656 25.297-10.477 3.492-21.805-2.172-25.297-12.656l-35.438-106.32c-17.508 0-82.594 0-105.586 0-11.047 0-20-8.953-20-20s8.953-20 20-20zM647.609 648l-28.781-143.914c-1.859-9.32-10.117-16.086-19.625-16.086h-174.398c-9.516 0-17.766 6.766-19.633 16.078l-28.781 143.922zM472 528c11.047 0 20 8.953 20 20v40c0 11.047-8.953 20-20 20s-20-8.953-20-20v-40c0-11.047 8.953-20 20-20zM552 528c11.047 0 20 8.953 20 20v40c0 11.047-8.953 20-20 20s-20-8.953-20-20v-40c0-11.047 8.953-20 20-20zM60 168h352v-80h-60c-26.703 0-51.813-10.406-70.703-29.297s-29.297-44-29.297-70.703c0-11.047 8.953-20 20-20h480c11.047 0 20 8.953 20 20 0 55.141-44.859 100-100 100h-60v80h352c16.023 0 31.086 6.242 42.422 17.578s17.578 26.398 17.578 42.422v640c0 16.023-6.242 31.086-17.578 42.422s-26.398 17.578-42.422 17.578h-904c-16.023 0-31.086-6.242-42.422-17.578s-17.578-26.398-17.578-42.422v-640c0-16.023 6.242-31.086 17.578-42.422s26.398-17.578 42.422-17.578zM728.57 8h-433.164c2.938 8.336 7.734 15.977 14.18 22.422 11.336 11.336 26.398 17.578 42.414 17.578h320c26.078 0 48.32-16.719 56.57-40zM572 88h-120v80h120zM978.141 213.859c-3.781-3.781-8.805-5.859-14.141-5.859h-904c-5.336 0-10.359 2.078-14.141 5.859s-5.859 8.805-5.859 14.141v100h944v-100c0-5.336-2.078-10.359-5.859-14.141zM45.859 882.141c3.781 3.781 8.805 5.859 14.141 5.859h904c5.336 0 10.359-2.078 14.141-5.859s5.859-8.805 5.859-14.141v-500h-944v500c0 5.336 2.078 10.359 5.859 14.141zM924 568c11.047 0 20 8.953 20 20v160c0 11.047-8.953 20-20 20s-20-8.953-20-20v-160c0-11.047 8.953-20 20-20z" />
<glyph unicode="&#xe927;" glyph-name="shopping-basket" d="M512 448.023c11.039 0 20 8.961 20 20s-8.961 20-20 20-20-8.961-20-20 8.961-20 20-20zM944 608.023h-118.273l-181.938 250.305c-16.344 28.008-52.344 37.977-80.938 22.141-28.984-16.102-39.406-52.609-23.297-81.602 0.461-0.82 0.969-1.609 1.539-2.359l142.703-188.484h-343.594l142.703 188.484c0.563 0.75 1.078 1.539 1.539 2.359 16.070 28.922 5.766 65.461-23.32 81.617-28.531 15.805-64.531 5.844-80.906-22.141l-181.945-250.32h-118.273c-44.109 0-80-35.891-80-80 0-34.789 22.578-65.078 54.383-75.797 3.391-2.625 7.625-4.203 12.234-4.203 0.922 0 1.789-0.055 2.695-0.18 8.609-1.156 15.43-7.688 16.992-16.234l68.039-374.328c5.195-28.539 30.023-49.258 59.039-49.258h597.234c29.016 0 53.844 20.719 59.039 49.266l68.039 374.313c1.563 8.555 8.391 15.086 17.031 16.242 0.875 0.125 1.742 0.18 2.656 0.18 4.641 0 8.906 1.594 12.297 4.25 31.828 10.789 54.32 41.023 54.32 75.75 0 44.109-35.891 80-80 80zM573.977 819.344c-4.57 9.461-1.023 20.984 8.273 26.141 9.68 5.367 21.883 1.906 27.219-7.711 0.391-0.719 0.836-1.406 1.313-2.063l165.492-227.688h-42.313zM413.219 835.703c0.477 0.656 0.906 1.336 1.305 2.039 5.352 9.625 17.563 13.094 27.203 7.758 9.313-5.172 12.875-16.68 8.297-26.156l-159.984-211.32h-42.313zM944 488.023h-352c-11.047 0-20-8.953-20-20s8.953-19.797 20-19.797h308.797c-1.047-2.984-1.875-6.078-2.453-9.266l-68.047-374.516c-1.727-9.516-10.008-16.422-19.68-16.422h-597.234c-9.68 0-17.953 6.906-19.688 16.414l-68.039 374.328c-0.578 3.188-1.406 6.281-2.453 9.258h308.797c11.047 0 20 8.953 20 20s-8.953 20-20 20h-352c-22.242 0-40 18.125-40 40 0 22.055 17.945 40 40 40h864c22.055 0 40-17.945 40-40 0-22.211-18.172-40-40-40zM512 388.023c-33.086 0-60-26.914-60-60v-160c0-33.086 26.914-60 60-60s60 26.914 60 60v160c0 33.148-26.852 60-60 60zM532 168.023c0-11.031-8.969-20-20-20s-20 8.969-20 20v160c0 11.031 8.969 20 20 20 11.039 0 20-8.961 20-20zM712 108.023c33.086 0 60 26.914 60 60v160c0 33.148-26.852 60-60 60-33.086 0-60-26.914-60-60v-160c0-33.086 26.914-60 60-60zM692 328.023c0 11.031 8.969 20 20 20 11.039 0 20-8.961 20-20v-160c0-11.031-8.969-20-20-20s-20 8.969-20 20zM312 388.023c-33.086 0-60-26.914-60-60v-160c0-33.086 26.914-60 60-60s60 26.914 60 60v160c0 33.148-26.852 60-60 60zM332 168.023c0-11.031-8.969-20-20-20s-20 8.969-20 20v160c0 11.031 8.969 20 20 20 11.039 0 20-8.953 20-20z" />
<glyph unicode="&#xe928;" glyph-name="fashion" d="M554 560c-11.039 0-20-8.961-20-20s8.961-20 20-20 20 8.961 20 20-8.961 20-20 20zM992.328 548.016l-126.859 289.953c-10.586 24.219-29.938 42.961-54.477 52.781l-68.805 27.516-79.242 39.625c-2.758 1.383-5.875 2.109-8.945 2.109h-280c-0.102 0-0.203-0.016-0.313-0.023-3.078-0.039-6.094-0.82-8.625-2.086l-79.25-39.625-68.797-27.516c-24.547-9.813-43.891-28.563-54.477-52.773l-126.859-289.961c-4.133-9.445-0.406-20.492 8.609-25.5l169.711-94.281v-472.234c0-11.047 8.961-20 20-20h560c11.047 0 20 8.953 20 20v472.234l169.711 94.281c9.016 5.008 12.75 16.055 8.617 25.5zM514 704.719l-65.633 131.281h131.273zM662.945 913.172l48.25-24.133-48.070-224.375c-1.148-5.359-4.352-9.914-9.008-12.805-4.633-2.891-10.102-3.75-15.406-2.414l-95.672 23.914zM621.641 920l-22-44h-171.281l-22 44zM365.055 913.172l119.906-239.813-95.68-23.922c-5.289-1.32-10.766-0.469-15.398 2.422-4.656 2.891-7.852 7.445-9 12.789l-48.078 224.391zM254-24v80h520v-80zM814 473.992v99.508c0 11.047-8.953 20-20 20-11.039 0-20-8.953-20-20v-477.5h-520c0 27.188 0 458.016 0 477.5 0 11.047-8.953 20-20 20-11.039 0-20-8.953-20-20v-99.508l-134.383 74.656 119.57 273.297c6.352 14.531 17.961 25.773 32.68 31.664l47.547 19.016 46.359-216.375c3.453-16.055 13.031-29.68 26.977-38.359 13.938-8.672 30.367-11.234 46.242-7.258l115.008 28.75 115-28.742c15.906-3.984 32.328-1.414 46.258 7.25 13.938 8.68 23.523 22.305 26.984 38.383l46.352 216.352 47.539-19.016c14.727-5.891 26.336-17.133 32.688-31.664l119.563-273.297zM714 560h-80c-11.039 0-20-8.953-20-20s8.961-20 20-20h80c11.047 0 20 8.953 20 20s-8.953 20-20 20z" />
<glyph unicode="&#xe929;" glyph-name="dress" d="M631.999 308.001c-11.039 0-20-8.961-20-20s8.961-20 20-20 20 8.961 20 20-8.961 20-20 20zM391.999 308.001c-11.039 0-20-8.961-20-20s8.961-20 20-20 20 8.961 20 20-8.961 20-20 20zM326.062 428.774c-1.562-2.102-3.062-4.359-4.578-6.656-22.969-34.664-48.742-82.578-67.117-120-36.476-74.281-87.219-193.836-121.836-341.554-1.398-5.945 0-12.203 3.797-16.992 3.789-4.781 9.562-7.57 15.672-7.57h719.999c6.117 0 11.898 2.797 15.687 7.594 7.281 9.211 3.102 18.891 3.039 20.125-25.562 108.219-60.672 210.586-104.328 304.281-43.523 93.39-82.508 149.273-87.953 159.117-1.234 3.453-1.469 7.109-0.734 11.445 1.359 2.531 2.164 5.391 2.32 8.414 3.828 10.562 11.211 23.062 19.594 37.25 20.094 34.008 46.93 79.445 51.648 143.851 49.43 1.617 91.812 36.859 99.367 83.265 10 61.414-36.891 116.656-98.64 116.656h-100c-33.078 0-60 26.914-60 60v52c0 11.047-8.953 20-20 20h-160c-11.039 0-20-8.953-20-20v-52c0-33.086-26.914-60-60-60h-95.719c-50.937 0-95.187-35.828-102.922-83.344-9.992-61.414 36.898-116.656 98.64-116.656h0.742c4.742-64.109 31.516-109.554 51.562-143.578 8.422-14.297 15.836-26.883 19.672-37.508 0.156-2.992 0.961-5.812 2.289-8.312 0.641-3.687 0.578-6.867-0.203-9.828zM846.576-23.998h-669.132c33.43 132.75 79.312 240.226 112.828 308.484 34.445 70.164 62.922 113.64 68.523 121.375 1.781 1.961 3.18 4.281 4.070 6.836 1.883 4.977 3.047 10.070 3.555 15.305h40.351l-13.625-58.141c-2.516-10.75 4.156-21.516 14.914-24.031 10.75-2.523 21.516 4.148 24.031 14.906l15.766 67.265h44.141v-140c0-11.047 8.961-20 20-20 11.047 0 20 8.953 20 20v140h44.148l15.766-67.265c2.508-10.719 13.25-17.437 24.031-14.906 10.758 2.516 17.43 13.281 14.914 24.031l-13.633 58.141h40.367c0.531-5.469 1.766-10.781 3.797-15.984 6.719-17.187 116.726-162.218 185.187-436.015zM831.162 717.774c-4.406-27.086-29.461-47.797-59.164-49.625v19.852c0 33.086-26.914 60-60 60h-20v40h80c35.922 0 65.398-31.898 59.164-70.226zM451.999 888v32h120v-32c0-48.289 34.414-88.695 80-97.984v-45.914c-59.18-11.352-110.633-46.672-140-91.508-29.156 44.523-80.469 80.101-140 91.508v45.914c45.594 9.289 80 49.695 80 97.984zM192.843 738.227c4.617 28.375 31.891 49.773 63.437 49.773h75.719v-40h-20c-33.078 0-60-26.914-60-60v-20c-35.914 0-65.398 31.898-59.156 70.226zM291.999 648.001v40c0 11.031 8.977 20 20 20h20c70.211 0 139.437-45.211 161.14-106.664 2.828-7.992 10.383-13.336 18.859-13.336 8.484 0 16.039 5.344 18.859 13.336 21.773 61.648 91.148 106.664 161.14 106.664h20c11.031 0 20-8.969 20-20v-40c0-64.187-25.953-108.125-46.812-143.422-7.742-13.102-14.734-24.953-19.797-36.578h-306.788c-5.070 11.664-12.078 23.562-19.836 36.734-20.836 35.359-46.766 79.359-46.766 143.265z" />
<glyph unicode="&#xe92a;" glyph-name="manager" horiz-adv-x="1022" d="M612.103 601.999c11.039 0 20 8.961 20 20s-8.961 20-20 20c-11.063 0-20-8.961-20-20s8.938-20 20-20zM412.102 601.999c11.039 0 20 8.961 20 20s-8.961 20-20 20c-11.063 0-20-8.961-20-20s8.938-20 20-20zM458.634 464.53c16.789-7.914 34.781-11.93 53.461-11.93 18.273 0 35.914 3.852 52.438 11.445 10.039 4.617 14.43 16.492 9.82 26.531-4.617 10.031-16.492 14.43-26.531 9.813-11.242-5.164-23.266-7.789-35.727-7.789-12.742 0-24.992 2.727-36.406 8.109-9.992 4.711-21.914 0.43-26.617-9.563-4.711-9.992-0.43-21.906 9.563-26.617zM953.182 150.459c0 109.977-125.25 196.227-232.61 200.313l-54.774 49.211c66.711 48.672 107.203 126.891 107.203 210.016v132c0 121.305-99.008 220-220.704 220h-80c-121.531 0-219.297-98.344-219.297-220v-132c0-82.985 39.953-161.055 105.797-209.641l-55.188-49.586c-107.125-4.078-232.61-90.11-232.61-200.313v-192.461c0-11.047 8.953-20 20-20h842.181c11.047 0 20 8.953 20 20zM467.79 69.998h88.492l20.969-92h-131.039zM558.001 109.998h-91.477l-15.344 47.805 60.922 30.461 62.227-31.125zM512.095 248.358l-69.5 111.18c22.57-6.273 46.024-9.531 69.703-9.531 23.453 0 46.734 3.195 69.188 9.367zM540.72 218.67l96.024 153.649 51.789-46.531-65.899-148.086zM472.298 922h80c99.641 0 180.703-80.742 180.703-180v-16.531l-37.555 54.078c-3.398 4.898-8.813 8.023-14.758 8.523-5.953 0.5-11.797-1.68-15.969-5.945-40.656-41.578-87.727-60.125-152.617-60.125-64.883 0-111.961 18.547-152.649 60.125-4.188 4.289-10.086 6.461-16.047 5.938-5.969-0.523-11.391-3.695-14.766-8.648l-35.641-52.227v14.813c0 99.258 80.43 180 179.297 180zM293.001 609.999v46.227l55.547 81.399c44.5-37.852 97.086-55.625 163.555-55.625 66.539 0 119.164 17.813 163.672 55.742l57.227-82.406v-45.336c0-119.774-97.899-220-220.704-220-122.406 0-219.297 99.914-219.297 220zM387.438 372.311l96.039-153.641-81.93-40.969-65.899 148.086zM111 150.459c0 82.391 100.156 153.532 187.68 160l74.828-168.133c2.219-4.984 6.383-8.852 11.523-10.695s10.805-1.5 15.695 0.938l14.25 7.133 16.227-50.531-26.078-111.172h-294.126zM913.181-22.002h-294.907l-25.266 110.867 17.398 50.234 13.047-6.531c4.922-2.461 10.602-2.766 15.695-0.938 5.141 1.844 9.305 5.711 11.523 10.695l74.828 168.133c87.524-6.477 187.68-77.61 187.68-160zM772.103 69.998h-80c-11.047 0-20-8.953-20-20s8.953-20 20-20h80c11.047 0 20 8.953 20 20s-8.953 20-20 20zM851.002 69.998c11.039 0 20-8.961 20-20s-8.961-20-20-20-20 8.961-20 20 8.961 20 20 20z" />
<glyph unicode="&#xe92b;" glyph-name="shopping-bag1" d="M924 188c11.039 0 20 8.961 20 20s-8.961 20-20 20-20-8.961-20-20 8.961-20 20-20zM924 268c11.047 0 20 8.953 20 20v160c0 11.047-8.953 20-20 20s-20-8.953-20-20v-160c0-11.047 8.953-20 20-20zM20 228h20v-272c0-11.047 8.953-20 20-20h904c33.086 0 60 26.914 60 60v744c0 11.047-8.953 20-20 20h-152v20c0 99.25-80.75 180-180 180-99.063 0-180-80.148-180-180v-20h-152c-11.047 0-20-8.953-20-20v-212.039c-19.594-14.75-33.109-36.227-37.984-60.086-0.672 0.070-1.344 0.125-2.016 0.125s-1.336-0.047-2-0.063c-9.266 45.617-49.688 80.063-98 80.063-55.141 0-100-44.859-100-100 0-22.492 7.469-43.273 20.055-60h-80.055c-11.047 0-20-8.953-20-20v-120c0-11.047 8.953-20 20-20zM80 228h100v-252h-100zM220 228h120v-252h-120zM480-24c-42.898 0-53.125 0-100 0v252h100zM380 268v80h140v-80zM380 388c-0.688 0-1.367 0.039-2.047 0.063-2.945 14.477-9.047 28.094-17.953 39.938v76.555c6.398 2.258 13.156 3.445 20 3.445 33.086 0 60-26.914 60-60s-26.914-60-60-60zM278.836 427.992l17.313-2.188c18.469-5.148 33.82-19.148 40.43-37.805h-113.094c8.242 23.102 29.891 39.508 55.352 39.992zM340 348v-80h-120v80zM964-24h-444v80h464v-60c0-11.031-8.969-20-20-20zM532 780c0 77.219 62.492 140 140 140 77.195 0 140-62.805 140-140v-20h-280zM492 720v-92h-20c-11.047 0-20-8.953-20-20s8.953-20 20-20h80c11.047 0 20 8.953 20 20s-8.953 20-20 20h-20v92h280v-92h-20c-11.047 0-20-8.953-20-20s8.953-20 20-20h80c11.047 0 20 8.953 20 20s-8.953 20-20 20h-20v92h132v-624h-464v132h20c11.047 0 20 8.953 20 20v120c0 11.047-8.953 20-20 20h-80.055c12.586 16.727 20.055 37.508 20.055 60 0 55.141-44.859 100-100 100-6.742 0-13.438-0.695-20-2.031v174.031zM120 448c0 33.086 26.914 60 60 60 29.266 0 53.695-21.070 58.945-48.836-29.078-13.164-50.383-39.789-56.875-71.102-0.688-0.023-1.375-0.063-2.070-0.063-33.086 0-60 26.914-60 60zM40 348h140v-80h-140z" />
<glyph unicode="&#xe92c;" glyph-name="guarantee" d="M352 668c11.039 0 20 8.961 20 20s-8.961 20-20 20-20-8.961-20-20 8.961-20 20-20zM352 548c11.039 0 20 8.961 20 20s-8.961 20-20 20-20-8.961-20-20 8.961-20 20-20zM312-64h480c77.195 0 140 62.805 140 140 0 11.047-8.953 20-20 20h-60v764c0 55.141-44.859 100-100 100 0 0-575.484 0-580 0-44.109 0-80-35.891-80-80v-100c0-11.047 8.953-20 20-20h100v-719.719c0-54.352 41.375-104.281 100-104.281zM792-24h-400.047c12.578 16.727 20.047 37.711 20.047 60.203v20h477.992c-9.289-45.594-49.703-80.203-97.992-80.203zM812 860v-764h-420c-11.047 0-20-8.953-20-20v-40c0-33.086-26.914-60-60-60-35.859 0-60 31.031-60 64.281v839.719c0 14.422-3.844 28.125-10.695 40h510.695c33.086 0 60-26.914 60-60zM132 800v80c0 22.055 17.945 40 40 40 21.867 0 40-17.633 40-40v-80zM532 388c0-34.625 14.484-66.641 40-89.375v-130.625c0-7.375 4.063-14.156 10.563-17.633 6.5-3.484 14.398-3.102 20.531 0.992l48.906 32.602 48.906-32.602c6.148-4.102 14.039-4.469 20.531-0.992 6.5 3.477 10.563 10.258 10.563 17.633v130.625c25.523 22.742 40 54.758 40 89.375 0 66.164-53.828 120-120 120s-120-53.828-120-120zM663.094 224.641c-6.719 4.477-15.469 4.477-22.188 0l-28.906-19.273v69.461c12.711-4.492 26.172-6.828 40-6.828s27.289 2.336 40 6.828v-69.461zM732 388c0-45.148-36.766-80-80-80-43.25 0-80 34.828-80 80 0 44.109 35.891 80 80 80s80-35.891 80-80zM352 788h360c11.047 0 20 8.953 20 20s-8.953 20-20 20h-360c-11.047 0-20-8.953-20-20s8.953-20 20-20zM432 668h280c11.047 0 20 8.953 20 20s-8.953 20-20 20h-280c-11.047 0-20-8.953-20-20s8.953-20 20-20zM432 548h280c11.047 0 20 8.953 20 20s-8.953 20-20 20h-280c-11.047 0-20-8.953-20-20s8.953-20 20-20zM352 308h120c11.047 0 20 8.953 20 20s-8.953 20-20 20h-120c-11.047 0-20-8.953-20-20s8.953-20 20-20zM352 428h120c11.047 0 20 8.953 20 20s-8.953 20-20 20h-120c-11.047 0-20-8.953-20-20s8.953-20 20-20zM352 188h120c11.047 0 20 8.953 20 20s-8.953 20-20 20h-120c-11.047 0-20-8.953-20-20s8.953-20 20-20z" />
<glyph unicode="&#xe92d;" glyph-name="courier" d="M611.797 520c11.047 0 20 8.961 20 20s-8.953 20-20 20c-11.039 0-20-8.961-20-20s8.961-20 20-20zM431.797 540c0 11.039-8.953 20-20 20-11.039 0-20-8.961-20-20s8.961-20 20-20c11.047 0 20 8.961 20 20zM249.141 275l-1.859-0.25c-57.563-7.477-107.953-36.203-138.242-78.82-24.234-34.086-37.039-74.211-37.039-116.031v-123.898c0-11.047 8.953-20 20-20h840c11.047 0 20 8.953 20 20v123.938c0 41.797-12.797 81.891-37.016 115.969-30.289 42.617-80.672 71.352-138.305 78.836l-128.188 16.641-13.18 59.664c65.5 35.273 112.672 96.75 129.711 168.953h9.977c55.141 0 100 44.859 100 100s-44.859 100-100 100h-3v20c0 121.305-98.695 220-220 220-28.641 0-51.367 0-80 0-120.031 0-217.906-96.633-219.953-216.18-0.398-2.672-0.242-6.453-0.047-9.078v-14.789c-53.758-1.586-97-45.813-97-99.953 0-55.141 44.859-100 100-100h3.992c17.242-73.242 65.242-134.125 129.711-168.883l-13.195-59.727zM512 320c29.672 0 58.492 4.906 85.984 14.57l13.156-59.531c-6.398-49.805-48.523-87.039-99.141-87.039s-92.75 37.242-99.141 87.055l13.148 59.516c27.5-9.664 56.32-14.57 85.992-14.57zM512 148c64.367 0 118.938 43.047 135.109 103.227l104.891-13.594v-261.633h-480.203v261.602l105.094 13.633c16.172-60.188 70.734-103.234 135.109-103.234zM112 79.898c0 33.469 10.25 65.578 29.641 92.852 20.242 28.484 52.602 49.109 90.359 58.422v-255.172h-120zM882.375 172.734c19.383-27.266 29.625-59.352 29.625-92.797v-103.938h-120.203v255.266c37.914-9.25 70.25-29.93 90.578-58.531zM412 790c0 62.656 34.531 115.156 80 127.336v-157.336h-77.289c-1.789 9.773-2.711 19.813-2.711 30zM609.289 760h-77.492v157.43c45.688-11.977 80.203-64.555 80.203-127.43 0-10.188-0.922-20.227-2.711-30zM726.25 720c-26.281-48.117-127.617-80-214.453-80-96.258 0-190.945 36.883-214.453 80zM775 680c33.086 0 60-26.914 60-60s-26.914-60-60-60h-3.797c0.508 6.656 0.797 13.328 0.797 20v100zM730.883 760h-81.070c1.438 9.852 2.188 19.875 2.188 30 0 46.813-15.672 89.273-40.969 120.047 64.289-22.383 112.102-80.258 119.852-150.047zM413.008 910.062c-25.32-30.789-41.008-73.258-41.008-120.063 0-10.125 0.742-20.148 2.188-30h-81.070c7.75 69.805 55.578 127.688 119.891 150.063zM195 620c0 32.078 25.305 58.359 57 59.922v-99.922c0-6.648 0.289-13.305 0.789-19.945-32.063 1.172-57.789 27.602-57.789 59.945zM292 580v85.922c54.508-45.719 146.852-65.922 219.797-65.922 83.555 0 171.016 24.914 220.203 66.258v-86.258c0-121.641-98.43-220-220-220-32.156 0-63.125 6.766-92.039 20.117-77.242 35.641-127.961 112.844-127.961 199.883zM458.344 414.523c16.813-7.914 34.797-11.922 53.453-11.922 18.273 0 35.914 3.852 52.438 11.445 10.039 4.617 14.43 16.492 9.82 26.523-4.617 10.039-16.492 14.438-26.531 9.82-11.242-5.172-23.266-7.789-35.727-7.789-12.727 0-24.977 2.727-36.422 8.117-9.992 4.703-21.906 0.414-26.609-9.578-4.703-10-0.414-21.914 9.578-26.617zM611.797 28h80c11.047 0 20 8.953 20 20s-8.953 20-20 20h-80c-11.039 0-20-8.953-20-20s8.961-20 20-20zM526.609 67.719c13.68 2.25 25.359-9.43 23.109-23.109-1.359-8.289-8.047-14.969-16.328-16.328-13.688-2.25-25.359 9.422-23.109 23.109 1.359 8.289 8.039 14.969 16.328 16.328z" />
<glyph unicode="&#xe92e;" glyph-name="favourite" d="M219.922 428c-11.039 0-20-8.961-20-20s8.961-20 20-20c11.039 0 20 8.961 20 20s-8.961 20-20 20zM980.141 550.711c-1.898 9.594 1.352 23.414 4.484 36.781 4.734 20.148 10.086 42.977 1.43 63.891-8.836 21.289-28.992 33.742-46.781 44.727-11.492 7.102-23.383 14.445-28.586 22.227-5.32 7.953-7.609 21.852-9.813 35.289-3.367 20.516-7.188 43.773-23.336 59.922s-39.414 19.961-59.93 23.328c-13.438 2.203-27.328 4.484-35.258 9.781-7.797 5.219-15.133 17.109-22.234 28.609-10.992 17.789-23.445 37.961-44.742 46.789-20.898 8.664-43.727 3.305-63.867-1.422-13.375-3.141-27.203-6.383-36.789-4.492-9.539 1.891-23.266 10.063-36.539 17.969-21.367 12.727-43.469 25.891-66.18 25.891-22.727 0-44.836-13.164-66.219-25.891-13.273-7.906-27-16.078-36.539-17.969-9.578-1.891-23.398 1.352-36.766 4.492-20.148 4.727-42.977 10.086-63.883 1.422-21.289-8.836-33.742-29-44.734-46.789-7.094-11.5-14.438-23.391-22.219-28.602-7.93-5.305-21.82-7.586-35.258-9.789-20.523-3.367-43.781-7.188-59.945-23.336-16.133-16.133-19.945-39.367-23.313-59.875-2.203-13.445-4.484-27.352-9.828-35.32-5.211-7.797-17.094-15.133-28.586-22.234-17.781-10.992-37.938-23.438-46.766-44.742-8.656-20.898-3.313-43.719 1.406-63.852 3.133-13.367 6.375-27.195 4.469-36.805-1.883-9.547-10.055-23.273-17.961-36.555-12.711-21.367-25.859-43.453-25.859-66.156 0-22.719 13.148-44.82 25.867-66.195 7.898-13.281 16.070-27.008 17.953-36.578 1.898-9.578-1.336-23.406-4.469-36.773-4.719-20.141-10.063-42.961-1.406-63.852 8.836-21.297 28.984-33.742 46.766-44.734 11.492-7.094 23.375-14.438 28.609-22.258 5.32-7.93 7.609-21.836 9.813-35.281 3.359-20.5 7.172-43.734 23.305-59.891 16.141-16.133 39.375-19.945 59.875-23.313 13.453-2.203 27.359-4.484 35.328-9.828 7.789-5.211 15.133-17.094 22.234-28.586 10.984-17.781 23.438-37.93 44.734-46.766 20.883-8.656 43.703-3.305 63.844 1.406 13.367 3.133 27.203 6.367 36.797 4.469 9.539-1.883 23.273-10.055 36.555-17.953 21.375-12.719 43.477-25.867 66.195-25.867 22.703 0 44.797 13.148 66.156 25.859 13.281 7.906 27.016 16.078 36.57 17.961 9.594 1.898 23.422-1.336 36.805-4.469 20.133-4.719 42.953-10.063 63.852-1.406 21.289 8.828 33.742 28.984 44.727 46.766 7.102 11.492 14.438 23.375 22.25 28.594 7.953 5.336 21.859 7.617 35.305 9.82 20.5 3.367 43.742 7.18 59.875 23.313 16.148 16.141 19.969 39.398 23.336 59.914 2.203 13.445 4.492 27.336 9.805 35.289 5.211 7.789 17.102 15.133 28.594 22.234 17.789 10.984 37.945 23.438 46.781 44.734 8.656 20.898 3.305 43.727-1.43 63.867-3.133 13.367-6.375 27.18-4.484 36.758 1.883 9.547 10.063 23.273 17.961 36.547 12.734 21.383 25.898 43.492 25.898 66.219 0 22.711-13.164 44.813-25.891 66.18-7.906 13.273-16.078 27-17.969 36.531zM963.734 402.242c-9.633-16.188-19.602-32.93-22.836-49.234v-0.008c-3.57-18.063 0.68-36.156 4.789-53.664 3.516-14.961 7.141-30.43 3.422-39.414-3.883-9.367-17.594-17.828-30.852-26.023-15.133-9.344-30.773-19-40.82-34.023-10.133-15.156-13.133-33.398-16.031-51.039-2.508-15.273-5.102-31.070-12.148-38.109-7.031-7.031-22.805-9.625-38.063-12.125-17.672-2.898-35.938-5.898-51.094-16.063-15.016-10.039-24.672-25.68-34.023-40.805-8.188-13.25-16.648-26.953-26.016-30.836-8.992-3.727-24.453-0.102-39.414 3.398-17.508 4.102-35.617 8.344-53.68 4.766-16.32-3.219-33.070-13.188-49.266-22.828-15.938-9.484-34-20.234-45.703-20.234-11.719 0-29.789 10.758-45.742 20.242-16.195 9.641-32.945 19.602-49.242 22.82-17.977 3.563-35.922-0.602-53.688-4.766-14.953-3.5-30.422-7.125-39.406-3.406-9.367 3.891-17.828 17.594-26.023 30.844-9.344 15.125-19 30.766-34 40.797-15.172 10.172-33.438 13.172-51.109 16.070-15.25 2.5-31.031 5.086-38.055 12.117-7.039 7.039-9.625 22.82-12.133 38.086-2.898 17.664-5.891 35.938-16.055 51.078-10.047 15.008-25.68 24.672-40.805 34.016-13.258 8.188-26.961 16.656-30.844 26.016-3.727 8.992-0.102 24.461 3.398 39.414 4.102 17.516 8.344 35.617 4.766 53.664-3.219 16.32-13.18 33.070-22.82 49.266-9.484 15.945-20.242 34.023-20.242 45.742 0 11.703 10.75 29.766 20.234 45.703 9.641 16.195 19.609 32.945 22.82 49.25 3.586 18.070-0.656 36.18-4.758 53.688-3.5 14.961-7.125 30.422-3.406 39.414 3.891 9.375 17.594 17.836 30.844 26.023 15.125 9.352 30.766 19.008 40.797 34.008 10.172 15.172 13.172 33.438 16.070 51.109 2.5 15.258 5.086 31.031 12.117 38.055 7.055 7.047 22.859 9.641 38.148 12.148 17.641 2.898 35.875 5.891 51.023 16.023 15.008 10.055 24.664 25.695 34.008 40.82 8.188 13.266 16.656 26.977 26.016 30.859 8.992 3.727 24.461 0.102 39.422-3.414 17.5-4.109 35.602-8.359 53.672-4.789 16.305 3.227 33.047 13.195 49.234 22.836 15.953 9.5 34.039 20.266 45.758 20.266 11.703 0 29.773-10.766 45.711-20.258 16.188-9.641 32.93-19.609 49.25-22.844 18.070-3.57 36.172 0.68 53.68 4.789 14.961 3.508 30.43 7.141 39.414 3.422 9.367-3.891 17.836-17.602 26.023-30.867 9.344-15.125 19.008-30.766 34.031-40.836 15.148-10.117 33.383-13.109 51.023-16 15.281-2.508 31.078-5.102 38.125-12.148 7.039-7.039 9.641-22.836 12.148-38.109 2.898-17.648 5.891-35.891 16.031-51.047 10.047-15.016 25.688-24.672 40.82-34.023 13.258-8.188 26.961-16.648 30.844-26.008 3.727-9 0.094-24.469-3.414-39.43-4.109-17.508-8.359-35.609-4.789-53.68 3.234-16.32 13.203-33.063 22.844-49.25 9.492-15.938 20.258-34.008 20.258-45.711 0-11.719-10.766-29.805-20.266-45.758zM511.922 840c-209.055 0-392-182.258-392-392 0-209.055 182.258-392 392-392 209.055 0 392 182.258 392 392 0 209.055-182.258 392-392 392zM511.922 96c-187.516 0-352 164.484-352 352s164.484 352 352 352c187.516 0 352-164.484 352-352s-164.484-352-352-352zM511.922 720c11.047 0 20 8.953 20 20s-8.953 20-20 20c-150.469 0-288.016-123.227-308.961-269.203-1.57-10.93 6.023-21.063 16.961-22.633 0.961-0.141 1.914-0.203 2.867-0.203 9.781 0 18.336 7.188 19.766 17.164 18.266 127.313 141.617 234.875 269.367 234.875zM694.711 495.195l-114.188 16.586-51.047 103.469c-3.367 6.828-10.32 11.148-17.938 11.148-7.609 0-14.563-4.32-17.93-11.148l-51.070-103.469-114.195-16.586c-7.531-1.094-13.789-6.375-16.141-13.617-2.352-7.234-0.391-15.188 5.063-20.5l82.625-80.539-19.5-113.742c-1.289-7.5 1.797-15.086 7.961-19.555 6.156-4.477 14.32-5.063 21.063-1.523l102.125 53.703 102.109-53.703c6.672-3.5 14.844-3 21.070 1.523 6.156 4.469 9.242 12.055 7.953 19.563l-19.5 113.734 82.633 80.539c5.453 5.32 7.414 13.266 5.063 20.508-2.359 7.234-8.617 12.516-16.156 13.609zM587.719 401.844c-4.711-4.594-6.867-11.219-5.75-17.703l14.43-84.156-75.547 39.734c-5.828 3.063-12.789 3.063-18.617 0l-75.57-39.734 14.43 84.156c1.109 6.484-1.039 13.102-5.75 17.703l-61.141 59.586 84.492 12.273c6.516 0.945 12.148 5.039 15.063 10.945l37.781 76.555 37.766-76.555c2.914-5.906 8.547-10 15.063-10.945l84.492-12.273z" />
<glyph unicode="&#xe92f;" glyph-name="shop" d="M532 808c-11.039 0-20-8.961-20-20s8.961-20 20-20 20 8.961 20 20-8.961 20-20 20zM452 808h-152c-11.047 0-20-8.953-20-20s8.953-20 20-20h152c11.047 0 20 8.953 20 20s-8.953 20-20 20zM764 808h-152c-11.047 0-20-8.953-20-20s8.953-20 20-20h152c11.047 0 20 8.953 20 20s-8.953 20-20 20zM20 48c-11.047 0-20-8.953-20-20s8.953-20 20-20h984c11.047 0 20 8.953 20 20s-8.953 20-20 20h-20c0 17.117 0 587.875 0 620 0 33.086-26.914 60-60 60h-20v100c0 33.086-26.914 60-60 60h-624c-33.086 0-60-26.914-60-60v-100h-20c-33.086 0-60-26.914-60-60v-75.281l-77.891-155.773c-1.32-2.641-2.109-5.773-2.109-8.945v-40c0-31.555 15.078-61.195 40-79.961v-260.039zM70.016 336.016c-18.516 10.711-30.016 30.625-30.016 51.984v20h120v-20c0-33.086-26.914-60-60-60-10.539 0-20.906 2.773-29.984 8.016zM302.344 568l15-120h-114.688l15 120zM944 368h-266.031c1.336 6.563 2.031 13.258 2.031 20v40c0 3.094-0.742 6.211-2.109 8.945l-65.531 131.055h331.641zM567.641 568l60-120h-112.023l-30 120zM200 408h120v-20c0-33.086-26.914-60-60-60-31.25 0-57.531 24.375-59.828 55.438-0.117 1.594-0.172 3.125-0.172 4.563zM360 408h120v-20c0-33.086-26.914-60-60-60s-60 26.914-60 60zM444.383 568l30-120h-116.727l-15 120zM200 308.18c16.805-12.664 37.633-20.18 60-20.18 32.68 0 61.742 15.758 80 40.070 18.258-24.313 47.32-40.070 80-40.070 22.492 0 43.273 7.469 60 20.055v-140.055h-280zM520 408h120v-20c0-10.539-2.773-20.906-8.016-29.984-5.273-9.125-12.875-16.727-21.984-21.992-9.094-5.25-19.461-8.023-30-8.023-33.086 0-60 26.914-60 60zM832 48h-80v160h80zM872 48v180c0 11.047-8.953 20-20 20h-120c-11.047 0-20-8.953-20-20v-180h-72v260.031c7.563 5.68 14.289 12.406 19.969 19.969h284.031v-280zM200 828c0 11.031 8.969 20 20 20h624c11.031 0 20-8.969 20-20v-100h-664zM120 668c0 11.031 8.969 20 20 20h784c11.031 0 20-8.969 20-20v-60h-824zM112.359 568h64.984l-15-120h-109.984zM80 290.031c6.563-1.336 13.258-2.031 20-2.031 22.492 0 43.273 7.469 60 20.055v-160.055c0-11.047 8.953-20 20-20h320c11.047 0 20 8.953 20 20v160.055c16.727-12.586 37.508-20.055 60-20.055 6.742 0 13.438 0.695 20 2.031v-242.031h-520z" />
<glyph unicode="&#xe930;" glyph-name="cashbox" d="M592 880c-11.039 0-20-8.961-20-20s8.961-20 20-20 20 8.961 20 20-8.961 20-20 20zM984 184.562v423.438c0 33.086-26.914 60-60 60h-132v92h80c33.086 0 60 26.914 60 60v80c0 33.086-26.914 60-60 60h-320c-33.086 0-60-26.914-60-60v-80c0-33.086 26.914-60 60-60h80v-92h-200v112c0 11.047-8.953 20-20 20h-200c-11.047 0-20-8.953-20-20v-112h-92c-33.086 0-60-26.914-60-60v-423.438c-23.281-8.258-40-30.492-40-56.563v-132c0-33.086 26.914-60 60-60h904c33.086 0 60 26.914 60 60v132c0 26.070-16.719 48.305-40 56.563zM672 760h80v-92h-80zM532 820v80c0 11.031 8.969 20 20 20h320c11.031 0 20-8.969 20-20v-80c0-11.031-8.969-20-20-20-36.414 0-269.148 0-320 0-11.031 0-20 8.969-20 20zM232 760h160v-372h-160zM80 608c0 11.031 8.969 20 20 20h92v-240c-11.047 0-20-8.953-20-20s8.953-20 20-20h240c11.047 0 20 8.953 20 20s-8.953 20-20 20v240h492c11.031 0 20-8.969 20-20v-420c-23.016 0-840.984 0-864 0zM372 148h280v-52c0-11.031-8.969-20-20-20h-240c-11.031 0-20 8.969-20 20zM984-4c0-11.031-8.969-20-20-20h-904c-11.031 0-20 8.969-20 20v132c0 11.031 8.969 20 20 20h272v-52c0-33.086 26.914-60 60-60h240c33.086 0 60 26.914 60 60v52h272c11.031 0 20-8.969 20-20zM552 388h280c11.047 0 20 8.953 20 20v160c0 11.047-8.953 20-20 20h-280c-11.047 0-20-8.953-20-20v-160c0-11.047 8.953-20 20-20zM572 548h240v-120h-240zM832 348h-40c-11.047 0-20-8.953-20-20s8.953-20 20-20h40c11.047 0 20 8.953 20 20s-8.953 20-20 20zM712 348h-40c-11.047 0-20-8.953-20-20s8.953-20 20-20h40c11.047 0 20 8.953 20 20s-8.953 20-20 20zM552 308h40c11.047 0 20 8.953 20 20s-8.953 20-20 20h-40c-11.047 0-20-8.953-20-20s8.953-20 20-20zM832 268h-40c-11.047 0-20-8.953-20-20s8.953-20 20-20h40c11.047 0 20 8.953 20 20s-8.953 20-20 20zM712 268h-40c-11.047 0-20-8.953-20-20s8.953-20 20-20h40c11.047 0 20 8.953 20 20s-8.953 20-20 20zM552 228h40c11.047 0 20 8.953 20 20s-8.953 20-20 20h-40c-11.047 0-20-8.953-20-20s8.953-20 20-20zM452 288c0 11.047-8.953 20-20 20h-240c-11.047 0-20-8.953-20-20s8.953-20 20-20h240c11.047 0 20 8.953 20 20zM672 840h160c11.047 0 20 8.953 20 20s-8.953 20-20 20h-160c-11.047 0-20-8.953-20-20s8.953-20 20-20z" />
<glyph unicode="&#xe931;" glyph-name="share" d="M764.587 573.156c-45.511 0-86.471-22.756-109.227-56.889l-213.902 106.951c4.551 13.653 6.827 25.031 6.827 38.684 0 75.093-61.44 136.533-136.533 136.533s-136.533-61.44-136.533-136.533c0-75.093 61.44-136.533 136.533-136.533 45.511 0 86.471 22.756 109.227 56.889l213.902-106.951c-4.551-13.653-6.827-25.031-6.827-40.96 0-13.653 2.276-27.307 6.827-40.96l-213.902-106.951c-25.031 36.409-65.991 59.164-111.502 59.164-75.093 0-136.533-61.44-136.533-136.533s61.44-136.533 136.533-136.533c75.093 0 136.533 61.44 136.533 136.533 0 13.653-2.276 27.307-6.827 40.96l213.902 106.951c25.031-34.133 63.716-56.889 109.227-56.889 75.093 0 136.533 61.44 136.533 136.533s-59.164 136.533-134.258 136.533zM391.396 623.218c-15.929-29.582-45.511-50.062-81.92-50.062-50.062 0-91.022 40.96-91.022 91.022s40.96 91.022 91.022 91.022c50.062 0 91.022-40.96 91.022-91.022 0-13.653-2.276-27.307-9.102-40.96zM309.476 118.044c-50.062 0-91.022 40.96-91.022 91.022s40.96 91.022 91.022 91.022c36.409 0 65.991-20.48 81.92-50.062 6.827-11.378 9.102-27.307 9.102-40.96 0-50.062-40.96-91.022-91.022-91.022zM764.587 345.6c-50.062 0-91.022 40.96-91.022 91.022s40.96 91.022 91.022 91.022c50.062 0 91.022-40.96 91.022-91.022s-40.96-91.022-91.022-91.022z" />
<glyph unicode="&#xe932;" glyph-name="share2" d="M716.327 848.637c-73.006 0-133.546-60.542-133.546-133.546 0-13.354 1.78-25.819 5.341-37.392l-198.54-125.533c-23.147 17.806-51.638 29.38-82.8 29.38-73.006 0-133.546-60.542-133.546-133.546s60.542-133.546 133.546-133.546c31.16 0 59.65 10.684 82.8 29.38l198.54-125.533c-3.561-11.574-5.341-24.93-5.341-37.392 0-73.006 60.542-133.546 133.546-133.546s133.546 60.542 133.546 133.546c0 73.006-60.542 133.546-133.546 133.546-40.955 0-78.348-18.697-103.275-48.968l-188.746 119.301c9.793 18.697 16.026 40.064 16.026 63.211s-6.232 44.516-16.026 63.211c62.322 40.064 126.424 79.237 189.636 119.301 24.93-29.38 61.431-48.968 103.275-48.968 73.006 0 133.546 60.542 133.546 133.546-0.891 73.896-61.431 133.546-134.437 133.546v0zM716.327 795.219c44.516 0 80.128-35.612 80.128-80.128s-35.612-80.128-80.128-80.128-80.128 35.612-80.128 80.128 35.612 80.128 80.128 80.128zM306.783 528.125c44.516 0 80.128-35.612 80.128-80.128s-35.612-80.128-80.128-80.128-80.128 35.612-80.128 80.128 35.612 80.128 80.128 80.128zM716.327 261.031c44.516 0 80.128-35.612 80.128-80.128s-35.612-80.128-80.128-80.128-80.128 35.612-80.128 80.128 35.612 80.128 80.128 80.128v0z" />
<glyph unicode="&#xe933;" glyph-name="high-heels" d="M881.992 119.281c11.039 0 20 8.961 20 20 0 11.047-8.961 20.008-20 20.008-11.047 0-20.008-8.961-20.008-20.008 0-11.039 8.961-20 20.008-20zM2.773 558.641c4.617-22.719 12.453-44.094 23.297-63.531 35.297-63.305 51.859-129.227 51.859-188.953v-246.883c0-11.039 8.953-20 20-20h80.008c11.039 0 20 8.961 20 20v223.141c0 45.086 10.391 90.336 30.070 130.922l1.828 2.945c94.703-78.828 170.516-179.305 220.008-291.828 22.75-51.742 73.219-85.18 128.563-85.18h163.57c78.977 0 141.047 1.633 187.258 9.586 22.945 3.953 92.766 15.961 92.766 70.422 0 30.797-25.516 75.516-65.008 113.922-26.516 25.805-82.359 70.75-158.32 81.922-5.906 0.867-11.883-0.945-16.313-4.938-19.828-17.898-58.688-30.891-92.383-30.891-47.898 0-98.617 27.344-117.969 63.602-0.383 0.711-0.805 1.398-1.266 2.063l-133.516 190.492c-82.633 117.883-181.281 223.563-293.195 314.094-7.297 5.906-17.711 5.945-25.047 0.094-31.219-24.883-57.266-54.648-77.422-88.469-38.875-65.258-51.391-139.672-38.914-201.93 0.039-0.203 0.078-0.406 0.125-0.602zM157.93 282.414v-203.133h-40v226.875c0 6.016-0.195 12.5-0.57 19.25-6.086 109.641-53.734 182.031-62.688 201.742 50.719-23.523 98.828-52.297 143.586-85.898-21.594-34.953-40.328-96.273-40.328-158.836zM75.93 740.695c14.969 25.117 33.664 47.703 55.703 67.313 103.773-85.836 195.5-185.188 272.844-295.516l132.844-189.547c26.594-48.547 90.547-83.656 152.656-83.656 39.391 0 83.516 14.023 111.391 34.82 60.547-11.523 105.703-48.141 127.734-69.578 34.727-33.781 52.891-68.453 52.891-85.25 0-17.148-32.375-26.32-59.547-31-43.414-7.469-103.547-9-180.469-9h-163.57c-39.484 0-75.578 24.047-91.945 61.273-86.609 196.914-246.68 353.789-446.344 436.672-7.258 49.219 3.68 109.523 35.813 163.469zM577.969 119.281h224.016c11.047 0 20 8.961 20 20 0 11.047-8.953 20.008-20 20.008h-224.016c-11.047 0-20.008-8.961-20.008-20.008 0-11.039 8.961-20 20.008-20z" />
<glyph unicode="&#xe934;" glyph-name="calendar" horiz-adv-x="947" d="M733.168 785.501h-41.934v24.349c0 31.112-24.349 54.108-54.108 54.108-31.112 0-54.108-24.349-54.108-54.108v-24.349h-206.964v24.349c0 31.112-24.349 54.108-54.108 54.108-31.112 0-54.108-24.349-54.108-54.108v-24.349h-41.934c-43.287 0-77.104-35.17-77.104-77.104v-550.552c0-43.287 35.17-77.104 77.104-77.104h507.266c43.287 0 77.104 35.17 77.104 77.104v550.552c0 43.287-33.818 77.104-77.104 77.104zM179.91 226.832c12.174-9.469 28.407-14.88 45.992-14.88h507.266c16.232 0 32.465 5.411 44.639 13.527v-2.705c0-24.349-20.291-44.639-44.639-44.639h-507.266c-24.349 0-45.992 20.291-45.992 44.639 0 1.353 0 4.058 0 4.058zM777.807 290.41c0-24.349-20.291-44.639-44.639-44.639h-507.266c-24.349 0-45.992 20.291-45.992 44.639v344.941h597.897v-344.941zM615.482 811.202c0 12.174 9.469 21.643 21.643 21.643s21.643-9.469 21.643-21.643v-51.403c0-12.174-9.469-21.643-21.643-21.643s-21.643 9.469-21.643 21.643v51.403zM298.948 811.202c0 12.174 9.469 21.643 21.643 21.643s21.643-9.469 21.643-21.643v-51.403c0-12.174-9.469-21.643-21.643-21.643s-21.643 9.469-21.643 21.643v51.403zM224.55 753.036h41.934c2.705-27.054 27.054-48.697 54.108-48.697s51.403 21.643 54.108 48.697h206.964c2.705-27.054 27.054-48.697 54.108-48.697s51.403 21.643 54.108 48.697h41.934c24.349 0 44.639-20.291 44.639-44.639v-40.581h-599.25v40.581c2.705 24.349 21.643 44.639 47.345 44.639zM733.168 113.205h-507.266c-24.349 0-45.992 20.291-45.992 44.639v2.705c12.174-9.469 28.407-14.88 45.992-14.88h507.266c16.232 0 32.465 5.411 44.639 13.527v-2.705c0-22.996-20.291-43.287-44.639-43.287zM273.247 413.506h2.705c13.527 0 25.701 12.174 25.701 25.701v2.705c0 13.527-12.174 25.701-25.701 25.701h-2.705c-13.527 0-25.701-12.174-25.701-25.701v-2.705c0-14.88 10.822-25.701 25.701-25.701zM376.053 413.506h2.705c13.527 0 25.701 12.174 25.701 25.701v2.705c0 13.527-12.174 25.701-25.701 25.701h-2.705c-13.527 0-25.701-12.174-25.701-25.701v-2.705c0-14.88 10.822-25.701 25.701-25.701zM477.506 413.506h2.705c13.527 0 25.701 12.174 25.701 25.701v2.705c0 13.527-12.174 25.701-25.701 25.701h-2.705c-13.527 0-25.701-12.174-25.701-25.701v-2.705c0-14.88 12.174-25.701 25.701-25.701zM273.247 516.312h2.705c13.527 0 25.701 12.174 25.701 25.701v2.705c0 13.527-12.174 25.701-25.701 25.701h-2.705c-13.527 0-25.701-12.174-25.701-25.701v-2.705c0-14.88 10.822-25.701 25.701-25.701zM376.053 516.312h2.705c13.527 0 25.701 12.174 25.701 25.701v2.705c0 13.527-12.174 25.701-25.701 25.701h-2.705c-13.527 0-25.701-12.174-25.701-25.701v-2.705c0-14.88 10.822-25.701 25.701-25.701zM477.506 516.312h2.705c13.527 0 25.701 12.174 25.701 25.701v2.705c0 13.527-12.174 25.701-25.701 25.701h-2.705c-13.527 0-25.701-12.174-25.701-25.701v-2.705c0-14.88 12.174-25.701 25.701-25.701zM580.312 413.506h2.705c13.527 0 25.701 12.174 25.701 25.701v2.705c0 13.527-12.174 25.701-25.701 25.701h-2.705c-13.527 0-25.701-12.174-25.701-25.701v-2.705c0-14.88 12.174-25.701 25.701-25.701zM683.118 413.506h2.705c13.527 0 25.701 12.174 25.701 25.701v2.705c0 13.527-12.174 25.701-25.701 25.701h-2.705c-13.527 0-25.701-12.174-25.701-25.701v-2.705c0-14.88 10.822-25.701 25.701-25.701zM580.312 516.312h2.705c13.527 0 25.701 12.174 25.701 25.701v2.705c0 13.527-12.174 25.701-25.701 25.701h-2.705c-13.527 0-25.701-12.174-25.701-25.701v-2.705c0-14.88 12.174-25.701 25.701-25.701zM683.118 516.312h2.705c13.527 0 25.701 12.174 25.701 25.701v2.705c0 13.527-12.174 25.701-25.701 25.701h-2.705c-13.527 0-25.701-12.174-25.701-25.701v-2.705c0-14.88 10.822-25.701 25.701-25.701zM273.247 310.7h2.705c13.527 0 25.701 12.174 25.701 25.701v2.705c0 13.527-12.174 25.701-25.701 25.701h-2.705c-13.527 0-25.701-12.174-25.701-25.701v-2.705c0-14.88 10.822-25.701 25.701-25.701zM376.053 310.7h2.705c13.527 0 25.701 12.174 25.701 25.701v2.705c0 13.527-12.174 25.701-25.701 25.701h-2.705c-13.527 0-25.701-12.174-25.701-25.701v-2.705c0-14.88 10.822-25.701 25.701-25.701zM477.506 310.7h2.705c13.527 0 25.701 12.174 25.701 25.701v2.705c0 13.527-12.174 25.701-25.701 25.701h-2.705c-13.527 0-25.701-12.174-25.701-25.701v-2.705c0-14.88 12.174-25.701 25.701-25.701zM580.312 310.7h2.705c13.527 0 25.701 12.174 25.701 25.701v2.705c0 13.527-12.174 25.701-25.701 25.701h-2.705c-13.527 0-25.701-12.174-25.701-25.701v-2.705c0-14.88 12.174-25.701 25.701-25.701zM683.118 310.7h2.705c13.527 0 25.701 12.174 25.701 25.701v2.705c0 13.527-12.174 25.701-25.701 25.701h-2.705c-13.527 0-25.701-12.174-25.701-25.701v-2.705c0-14.88 10.822-25.701 25.701-25.701z" />
<glyph unicode="&#xe935;" glyph-name="currency" d="M362 548c-10.938 0-19.844-8.797-20-19.719v-0.281c0-11.039 8.961-20 20-20s20 8.961 20 20c0 0.102 0 0.18 0 0.281-0.156 10.922-9.063 19.719-20 19.719zM362 960c-129.203 0-260-34.352-260-100v-624c0-65.648 130.797-100 260-100 3.898 0 7.766 0.039 11.594 0.094 35.227-118.156 144.125-200.094 268.406-200.094 154.391 0 280 125.609 280 280s-125.609 280-280 280c-6.711 0-13.445-0.266-20.172-0.742 0.016 13.133 0.102 211.344 0.109 237.109 0.023 0.547 0.063 1.094 0.063 1.633 0 0.391-0.039 0.766-0.055 1.148l0.055 124.844v0.008c0 65.648-130.797 100-260 100zM375.57 302.133c-4.594-0.086-9.133-0.133-13.57-0.133-62.008 0-120.031 7.961-163.375 22.406-44.789 14.93-56.625 31.117-56.625 37.594v70.117c48.57-29.117 134.625-44.117 220-44.117 20.711 0 41.305 0.875 61.234 2.57-21.016-26.367-37.281-56.438-47.664-88.438zM469.969 436.875c-32.992-5.789-70.18-8.875-107.969-8.875-62.008 0-120.031 7.961-163.375 22.406-44.789 14.93-56.625 31.117-56.625 37.594v63.945c11.172-6.656 23.109-11.984 35.367-16.469 32.625-12.234 92.375-22.938 104.773-22.938 10.023 0 18.672 7.516 19.844 17.703 1.273 10.977-6.602 20.898-17.57 22.164-6.398 1.047-76.914 8.109-119.906 32.695-17.125 9.727-19.219 15.586-22.289 21.141-0.523 2.828-0.023-2.773-0.219 71.875 48.57-29.117 134.625-44.117 220-44.117 65.367 0 127.313 8.5 174.422 23.93 18.922 6.195 34.008 12.969 45.695 19.953-0.047-73.391-0.016-71.016-0.047-71.211-0.805-3.75-3.977-7.391-6.711-10.078-0.203-0.078-31.305-32.289-135.531-44.156l-0.242-0.031c-10.977-1.266-18.844-11.188-17.578-22.164 1.18-10.188 9.82-17.703 19.844-17.703 23.977 0 102.43 16.898 140.203 39.313l-0.031-62.352c-40.625-8.922-79.102-26.914-112.055-52.625zM582.063 606.562c0 0.016 0.008 0.031 0.008 0.047-0.016-0.063-0.008-0.047-0.008-0.047zM582.141 733.312c-0.688-6.742-13.734-22.82-58.172-37.375-43.195-14.148-100.719-21.938-161.969-21.938-62.008 0-120.031 7.961-163.375 22.406-44.789 14.93-56.625 31.117-56.625 37.594v70.117c48.57-29.117 134.625-44.117 220-44.117 85.359 0 171.602 15 220.172 44.102zM198.625 897.594c43.344 14.445 101.367 22.406 163.375 22.406s120.031-7.961 163.375-22.406c44.789-14.93 56.625-31.117 56.625-37.594s-11.836-22.664-56.625-37.594c-43.344-14.445-101.367-22.406-163.375-22.406s-120.031 7.961-163.375 22.406c-44.789 14.93-56.625 31.117-56.625 37.594s11.836 22.664 56.625 37.594zM198.625 198.406c-44.789 14.93-56.625 31.117-56.625 37.594v70.117c48.57-29.117 134.625-44.117 220-44.117 1.25 0 2.523 0.016 3.781 0.016-2.5-15.141-3.781-30.539-3.781-46.016 0-13.422 0.953-26.797 2.844-39.984-0.953-0.008-1.891-0.016-2.844-0.016-62.008 0-120.031 7.961-163.375 22.406zM882 216c0-132.336-107.664-240-240-240-112.086 0-208.18 76.102-233.688 185.063-0.016 0.055-0.023 0.102-0.031 0.156-0.008 0.023-0.016 0.055-0.023 0.086-4.148 17.789-6.258 36.188-6.258 54.695 0 20.727 2.633 41.266 7.828 61.047 26.766 102.078 119.914 178.953 232.172 178.953 132.336 0 240-107.664 240-240zM582 256c0-33.086 26.914-60 60-60 11.031 0 20-8.969 20-20s-8.969-20-20-20c-8.547 0-17.773 5.375-25.969 15.125-7.109 8.461-19.727 9.555-28.18 2.445-8.461-7.109-9.547-19.727-2.438-28.18 10.688-12.719 23.266-21.586 36.586-26.047v-23.344c0-11.047 8.953-20 20-20s20 8.953 20 20v23.438c23.281 8.258 40 30.492 40 56.563 0 33.086-26.914 60-60 60-11.031 0-20 8.969-20 20s8.969 20 20 20c7.086 0 14.563-3.617 21.633-10.453 7.938-7.68 20.602-7.469 28.281 0.461 7.68 7.945 7.469 20.602-0.469 28.281-10.148 9.828-20.305 15.383-29.445 18.414v23.297c0 11.047-8.953 20-20 20s-20-8.953-20-20v-23.438c-23.281-8.258-40-30.492-40-56.563z" />
<glyph unicode="&#xe936;" glyph-name="arrow-up1" d="M524.288 800.765l-222.003-208.896c-4.915-4.915-4.915-13.926-0.819-18.842 4.915-4.915 13.926-4.915 18.842-0.819l199.885 187.597v-752.026c0-7.373 5.734-13.107 13.107-13.107s13.107 5.734 13.107 13.107v752.026l199.885-187.597c4.915-4.915 13.926-4.096 18.842 0.819s4.915 13.107-0.819 18.842l-222.003 208.896c-5.734 4.915-13.107 4.096-18.022 0v0z" />
</font>
</defs>
</svg>
